» » Grave of the Fireflies 1080p x265 HEVC 10bit BluRay Dual Audio AAC 1988
Language: English
Size: 2.9 GB
Rating: 4.1
Category: Dual Audio
Votes: 700
Grave of the Fireflies 1080p x265 HEVC 10bit BluRay Dual Audio AAC 1988
Files:
  • Grave of the Fireflies (1988) [1080p x265 HEVC 10bit BluRay Dual Audio AAC] [Prof].mkv (2.9 GB)


64-bitWriting library : libebml v.

64-bitWriting library : libebml v. 2VideoID : 1Format : HEVCFormat/Info : High Efficiency Video CodingFormat profile : Main [email protected] ID : V on : 1 h 28 minBit rate : 3 859 kb/sWidth : 1 920 pixelsHeight : 1 080 pixelsDisplay aspect ratio : 16:9Frame rate mode : ConstantFrame rate : 2. 76 (24000/1001) FPSColor space

Audio Books & Poetry Community Audio Computers & Technology Music, Arts & Culture News & Public Affairs Non-English Audio Radio Programs. Olympus S01E03 Ring of the Magi (1080p x265 10bit apekat).

Audio Books & Poetry Community Audio Computers & Technology Music, Arts & Culture News & Public Affairs Non-English Audio Radio Programs. Librivox Free Audiobook. Spirituality & Religion Podcasts. Olympus S01E04 Minos (1080p x265 10bit apekat). Olympus S01E05 Blood Brothers (1080p x265 10bit apekat). Olympus S01E06 The Lexicon (1080p x265 10bit apekat). Olympus S01E07 Love and Time (1080p x265 10bit apekat).

Other subreddits that you might be interested in: /r/MEGA.

File Container: MKV Video Format: . 65/HEVC Video Resolution: 1920x1080 Aspect Ratio: 1. Audio Type: Mixed Track 1: English (. Surround) (default) Track 2: Japanese (. Surround). Audio Format: AAC-LC. Subtitles: (VobSub) Track 1: English Signs/Song Retail Track 2: English Subs Retail. Video Source: Moozzi2. Samurai Champloo (ENHANCED) ..

Grave of the Fireflies (Hotaru no Haka) p Bluray x265 10Bit AAC . - GetSchwifty in. - GetSchwifty in HEVC/x265, by. GetSchwifty. Grave of the Fireflies - Una Tomba per le Lucciole 1988 BDRip 1080p Ita Eng Jap x265-NAHOM in Anime - Other, by. NAHOMhd. Grave of the Fireflies (1988) (Hotaru no haka) .mkv in Anime - Other, by. JRRstudios.

Скачать с помощью Mediaget. com/Weird Science p BluRay x265 HEVC 10bit AAC . Tigole.

Slasher (2016) S01 1080p BluRay x265 MEGA Rampaging serial killers . It was in that house on Halloween Night 1988 where both of her parents, Bryan and Rachel, were murdered

Slasher (2016) S01 1080p BluRay x265 MEGA Rampaging serial killers leave carnage in their wake as their next victims fight to stay alive in this horror. Note from Encoder: This was encoded from German BluRays which only seems to have a stereo English track. With it being a different length to other releases with . audio it has not been included in this release. It was in that house on Halloween Night 1988 where both of her parents, Bryan and Rachel, were murdered. Rachel was pregnant with Sarah at the time of her murder, with police discovering the killer holding Rachel’s newborn baby after the slayings.

29 1080p BluRay x265 HEVC 10bit AAC 5. Watch this video online. Agora p BluRay x265 HEVC 10bit AAC . Anthropoid p BluRay x265 HEVC 10bit AAC 5 1 Tigole. Lean on Pete p BluRay x265 HEVC 10bit AAC 5 1 Tigole.



Hotaru no Haka

Synopsis
As World War II reaches its conclusion in 1945, Japan faces widespread destruction in the form of American bombings, devastating city after city. Hotaru no Haka, also known as Grave of the Fireflies, is the story of Seita and his sister Setsuko, two Japanese children whose lives are ravaged by the brutal war. They have lost their mother, their father, their home, and the prospect of a bright future—all tragic consequences of the war.
Now orphaned and homeless, Seita and Setsuko have no choice but to drift across the countryside, beset by starvation and disease. Met with the apathy of adults along the way, they find that desperate circumstances can turn even the kindest of people cruel yet their youthful hope shines brightly in the face of unrelenting hardship, preventing the siblings from swiftly succumbing to an inevitable fate.
[Written by MAL Rewrite]
Background
Hotaru no Haka is based on the 1967 semi-autobiographical short story of the same name by Akiyuki Nosaka, which is centered on his experiences during and after the American firebombing of Kobe in 1945, and was released as a double feature with My Neighbor Totoro.
The movie has won several awards including the Japan Catholic Film Award in 1988, the Special Award in the 31st Blue Ribbon Awards in 1989, the Animation Jury and Rights of the Child Awards in the Chicago International Children's Film Festival in 1994, and the 1st Moscow International Children's and Youth's Film Festival Grand Prix in 1998.
Alternative Titles
English: Grave of the Fireflies
Synonyms: Tombstone for Fireflies
Japanese: 火垂るの墓
Information
Type: Movie
Episodes: 1
Status: Finished Airing
Aired: Apr 16, 1988
Producers: None found, add some
Licensors: ADV Films, Central Park Media, Sentai Filmworks
Studios: Studio Ghibli
Source: Novel
Genres: Drama, Historical
Duration: 1 hr. 28 min.
Rating: PG-13 - Teens 13 or older
MAL



Format : Matroska
Format version : Version 4
File size : 2.89 GiB
Duration : 1 h 28 min
Overall bit rate : 4 665 kb/s
Encoded date : UTC 2019-11-27 01:36:30
Writing application : mkvmerge v36.0.0 ('Is That Jazz?') 64-bit
Writing library : libebml v1.3.9 + libmatroska v1.5.2
Video
ID : 1
Format : HEVC
Format/Info : High Efficiency Video Coding
Format profile : Main [email protected]@Main
Codec ID : V_MPEGH/ISO/HEVC
Duration : 1 h 28 min
Bit rate : 3 859 kb/s
Width : 1 920 pixels
Height : 1 080 pixels
Display aspect ratio : 16:9
Frame rate mode : Constant
Frame rate : 23.976 (24000/1001) FPS
Color space : YUV
Chroma subsampling : 4:2:0
Bit depth : 10 bits
Bits/(Pixel*Frame) : 0.078
Stream size : 2.39 GiB (83%)
Writing library : x265 3.2+15-04db2bfee5d6:[Windows][MSVC 1923][64 bit] 10bit
Encoding settings : cpuid=1111039 / frame-threads=3 / numa-pools=12 / wpp / no-pmode / no-pme / no-psnr / no-ssim / log-level=2 / input-csp=1 / input-res=1920x1080 / interlace=0 / total-frames=127392 / level-idc=0 / high-tier=1 / uhd-bd=0 / ref=4 / no-allow-non-conformance / no-repeat-headers / annexb / no-aud / no-hrd / info / hash=0 / no-temporal-layers / open-gop / min-keyint=23 / keyint=250 / gop-lookahead=0 / bframes=8 / b-adapt=2 / b-pyramid / bframe-bias=0 / rc-lookahead=80 / lookahead-slices=6 / scenecut=40 / radl=0 / no-splice / no-intra-refresh / ctu=64 / min-cu-size=8 / rect / no-amp / max-tu-size=32 / tu-inter-depth=1 / tu-intra-depth=1 / limit-tu=0 / rdoq-level=2 / dynamic-rd=0.00 / no-ssim-rd / signhide / no-tskip / nr-intra=0 / nr-inter=0 / no-constrained-intra / strong-intra-smoothing / max-merge=3 / limit-refs=3 / limit-modes / me=3 / subme=3 / merange=57 / temporal-mvp / no-frame-dup / no-hme / weightp / no-weightb / no-analyze-src-pics / deblock=0:0 / sao / no-sao-non-deblock / rd=4 / selective-sao=4 / no-early-skip / rskip / no-fast-intra / no-tskip-fast / no-cu-lossless / no-b-intra / no-splitrd-skip / rdpenalty=0 / psy-rd=0.30 / psy-rdoq=1.00 / no-rd-refine / no-lossless / cbqpoffs=0 / crqpoffs=0 / rc=crf / crf=21.0 / qcomp=0.60 / qpstep=4 / stats-write=0 / stats-read=0 / ipratio=1.40 / pbratio=1.30 / aq-mode=2 / aq-strength=1.00 / cutree / zone-count=0 / no-strict-cbr / qg-size=32 / no-rc-grain / qpmax=69 / qpmin=0 / no-const-vbv / sar=0 / overscan=0 / videoformat=5 / range=0 / colorprim=2 / transfer=2 / colormatrix=2 / chromaloc=0 / display-window=0 / cll=0,0 / min-luma=0 / max-luma=1023 / log2-max-poc-lsb=8 / vui-timing-info / vui-hrd-info / slices=1 / no-opt-qp-pps / no-opt-ref-list-length-pps / no-multi-pass-opt-rps / scenecut-bias=0.05 / no-opt-cu-delta-qp / no-aq-motion / no-hdr / no-hdr-opt / no-dhdr10-opt / no-idr-recovery-sei / analysis-reuse-level=5 / scale-factor=0 / refine-intra=0 / refine-inter=0 / refine-mv=1 / refine-ctu-distortion=0 / no-limit-sao / ctu-info=0 / no-lowpass-dct / refine-analysis-type=0 / copy-pic=1 / max-ausize-factor=1.0 / no-dynamic-refine / no-single-sei / no-hevc-aq / no-svt / no-field / qp-adaptation-range=1.00 / no-scenecut-aware-qp
Default : Yes
Forced : No
Audio #1
ID : 2
Format : AAC LC
Format/Info : Advanced Audio Codec Low Complexity
Codec ID : A_AAC-2
Duration : 1 h 28 min
Bit rate : 394 kb/s
Channel(s) : 2 channels
Channel layout : L R
Sampling rate : 48.0 kHz
Frame rate : 46.875 FPS (1024 SPF)
Compression mode : Lossy
Delay relative to video : 9 ms
Stream size : 250 MiB (8%)
Language : English
Default : Yes
Forced : No
Audio #2
ID : 3
Format : AAC LC
Format/Info : Advanced Audio Codec Low Complexity
Codec ID : A_AAC-2
Duration : 1 h 28 min
Bit rate : 407 kb/s
Channel(s) : 2 channels
Channel layout : L R
Sampling rate : 48.0 kHz
Frame rate : 46.875 FPS (1024 SPF)
Compression mode : Lossy
Delay relative to video : 9 ms
Stream size : 258 MiB (9%)
Language : Japanese
Default : No
Forced : No
Text #1
ID : 4
Format : PGS
Muxing mode : zlib
Codec ID : S_HDMV/PGS
Codec ID/Info : Picture based subtitle format used on BDs/HD-DVDs
Duration : 22 s 1 ms
Bit rate : 66.8 kb/s
Count of elements : 8
Stream size : 179 KiB (0%)
Language : English
Default : Yes
Forced : No
Text #2
ID : 5
Format : PGS
Muxing mode : zlib
Codec ID : S_HDMV/PGS
Codec ID/Info : Picture based subtitle format used on BDs/HD-DVDs
Duration : 1 h 25 min
Bit rate : 15.6 kb/s
Count of elements : 1121
Stream size : 9.47 MiB (0%)
Language : English
Default : No
Forced : No
Menu
00:00:00.000 : en:Chapter 01
00:04:47.662 : en:Chapter 02
00:14:47.469 : en:Chapter 03
00:21:08.850 : en:Chapter 04
00:29:47.076 : en:Chapter 05
00:37:46.347 : en:Chapter 06
00:46:08.599 : en:Chapter 07
00:52:53.211 : en:Chapter 08
01:01:01.741 : en:Chapter 09
01:07:41.682 : en:Chapter 10
01:15:29.733 : en:Chapter 11
01:19:35.520 : en:Chapter 12
01:25:53.940 : en:Chapter 13
Source:

Images:
https://i.postimg.cc/yYZ4tF3r/40275l.jpg|https://i.postimg.cc/1R0YqJ6S/Grave-of-the-Fireflies-1988-1080p-x265-HEVC-10bit-Blu-Ray-Dual.png|https://i.postimg.cc/qMMQC04c/Grave-of-the-Fireflies-1988-1080p-x265-HEVC-10bit-Blu-Ray-Dual.png|https://i.postimg.cc/pLmZqZ9p/Grave-of-the-Fireflies-1988-1080p-x265-HEVC-10bit-Blu-Ray-Dual.png|https://i.postimg.cc/GtJL0GHD/e08d7d32-2b9a-4c18-95fc-b06540e5ab86-1-720449ec46fb9c4b7ea594e2d.jpg

Related at Grave of the Fireflies :
© 2019 www.gphi.it | Contacts | DMCA | Privacy Policy