» » Dragon Ball Z - The Return of Cooler 1080p BDRip x265 10bit AC3 5 1 - Goki 1992
Language: English
Size: 3.8 GB
Rating: 4.3
Category: Dual Audio
Votes: 008
Dragon Ball Z - The Return of Cooler 1080p BDRip x265 10bit AC3 5 1 - Goki 1992
Files:
Dragon Ball Z - The Return of Cooler (1992) 1080p BDRip x265 10bit AC3 5.1 - Goki
  • Dragon Ball Z - The Return of Cooler (1992) 1080p BDRip x265 10bit AC3 5.1 - Goki.mkv (3.8 GB)
  • Dragon Ball Z - The Return of Cooler (1992) 1080p BDRip x265 10bit AC3 5.1 - Goki.nfo (4.5 KB)
  • Dragon Ball Z - The Return of Cooler (1992) 1080p BDRip x265 10bit AC3 5.1 - Goki-clearlogo.png (168.3 KB)
  • Dragon Ball Z - The Return of Cooler (1992) 1080p BDRip x265 10bit AC3 5.1 - Goki-fanart.jpg (89.1 KB)
  • Dragon Ball Z - The Return of Cooler (1992) 1080p BDRip x265 10bit AC3 5.1 - Goki-logo.png (168.3 KB)
  • Dragon Ball Z - The Return of Cooler (1992) 1080p BDRip x265 10bit AC3 5.1 - Goki-poster.jpg (79.7 KB)


Dragon Ball Z: Gekitotsu!! 100-oku Power no Senshi-tachi - . Anime Tosho Home Dragon Ball Z: Gekitotsu!!

Dragon Ball Z: Gekitotsu!! 100-oku Power no Senshi-tachi - . Anime Tosho Home Dragon Ball Z: Gekitotsu!! 100-oku Power no Senshi-tachi 1, Complete Movie . Dragon. Series (!) Dragon Ball Z: Gekitotsu!! 100-oku Power no Senshi-tachi - Complete Movie.

10bit TrueHD . - Goki.

Unique ID : 9905396668395612526 (214249F996E96E) Complete name : Dragon Ball Z - The Return of Cooler (1992) 1080p BDRip x265 10bit TrueHD . 0 ('The Awakening') 64-bit Writing library : libebml v.

Cooler has resurrected himself as a robot and is enslaving the people of New Namek. Goku and the gang must help. Encode of the US Funimation BD with the Following audio options: English Dub . (Dolby TrueHD and Dolby Digital) with English music and the original Japanese score. Original Japanese Mono Track included as well. English subtitles for Japanese Dialogue included.

BDRip x265 10bit AC3 .

Unique ID : 5068464859944856228 (C768EB22382AA4) Complete name : Dragon Ball Z - The Return of Cooler (1992) 1080p BDRip x265 10bit AC3 . mode : Variable Overall bit rate : 2. Mb/s Movie name : DBZ CoolerRevenge ReturnCooler Encoded date : UTC. 2019-09-10 02:04:46 Writing application : MakeMKV v. 4. 2 win(x64-release) Writing library : libmakemkv v.

Dragon Ball Z: The Return of Cooler, known in Japan as Dragon Ball Z: Clash!! The Power of 10 Billion Warriors (Japanese: ドラゴンボールZ 激突!!100億パワーの戦士たち Hepburn: Doragon Bōru Zetto Gekitotsu!! Hyaku-Oku Pawā no Senshi-tachi) or by Toei's own English.

Dragon Ball Z: The Return of Cooler, known in Japan as Dragon Ball Z: Clash!! The Power of 10 Billion Warriors (Japanese: ドラゴンボールZ 激突!!100億パワーの戦士たち Hepburn: Doragon Bōru Zetto Gekitotsu!! Hyaku-Oku Pawā no Senshi-tachi) or by Toei's own English title Dragon Ball Z: Fight! 10 Billion Power Warriors, is a 1992 Japanese anime science fiction martial arts film, the sixth Dragon Ball Z movie, originally released in Japan on March 7 at the Toei Anime Fair along with the second Dragon Quest: Dai no Daibōken.

Come and download Dragon ball z x265 absolutely for free. Dragon ball z x265 results 1-20 from 42. torrent name. Dragon Ball Z - Cooler's Revenge (1991) 1080p BDRip x265 10bit AC3 5 1 - Goki Posted by Goki in Anime Dual Audio. Dragon Ball Z: Resurrection 'F' (2015) + Extras (1080p BluRay x265 HEVC 10bit AC3 5 1 English + Japanese SAMPA) QxR Posted by QxR in Movies HEVC/x265. 7. 3. Dragon Ball Z - The Return of Cooler (1992) 1080p BDRip x265 10bit AC3 5 1 - Goki Posted by Goki in Anime Dual Audio. 9movies - watch Dragon Ball Z: The Return of Cooler online free in Full HD 1080p. Watch Dragon Ball Z: The Return of Cooler tv-series/movies online for free, Free movie dragon ball z the return of cooler 1992 with English Subtitles, Watch Dragon Ball Z: The Return of Cooler full movie, Watch Dragon Ball Z: The Return of Cooler in HD quality online for free, putlocker Dragon Ball Z: The Return of Cooler, xmovies8 Dragon Ball.



Dragon Ball Z - The Return of Cooler IMDB

Screenshots





Media Information

Unique ID : 183261303823692575295068464859944856228 (0x89DED7E06BE4898B2DC768EB22382AA4)
Complete name : Dragon Ball Z - The Return of Cooler 1080p BDRip x265 10bit AC3 5.1 - Goki.mkv
Format : Matroska
Format version : Version 4
File size : 3.83 GiB
Duration : 45 min 50 s
Overall bit rate : 12.0 Mb/s
Movie name : Dragon Ball Z - The Return of Cooler 1080p BDRip x265 10bit AC3 5.1 - Goki
Encoded date : UTC 2019-09-25 13:04:15
Writing application : mkvmerge v28.2.0 ('The Awakening') 64-bit
Writing library : libebml v1.3.6 + libmatroska v1.4.9
Video
ID : 1
Format : HEVC
Format/Info : High Efficiency Video Coding
Format profile : Main [email protected]@Main
Codec ID : V_MPEGH/ISO/HEVC
Duration : 45 min 50 s
Bit rate : 10.0 Mb/s
Width : 1 920 pixels
Height : 1 080 pixels
Display aspect ratio : 16:9
Frame rate mode : Constant
Frame rate : 23.976 (24000/1001) FPS
Color space : YUV
Chroma subsampling : 4:2:0
Bit depth : 10 bits
Bits/(Pixel*Frame) : 0.202
Stream size : 3.21 GiB (84%)
Writing library : x265 2.9+8-27d8424c799d:[Windows][MSVC 1915][64 bit] 10bit
Encoding settings : cpuid=1111039 / frame-threads=2 / numa-pools=4 / wpp / no-pmode / no-pme / no-psnr / no-ssim / log-level=2 / input-csp=1 / input-res=1920x1080 / interlace=0 / total-frames=0 / level-idc=0 / high-tier=1 / uhd-bd=0 / ref=4 / no-allow-non-conformance / no-repeat-headers / annexb / no-aud / no-hrd / info / hash=0 / no-temporal-layers / open-gop / min-keyint=23 / keyint=250 / gop-lookahead=0 / bframes=8 / b-adapt=2 / b-pyramid / bframe-bias=0 / rc-lookahead=100 / lookahead-slices=4 / scenecut=40 / radl=0 / no-intra-refresh / ctu=64 / min-cu-size=8 / no-rect / no-amp / max-tu-size=32 / tu-inter-depth=2 / tu-intra-depth=2 / limit-tu=4 / rdoq-level=2 / dynamic-rd=0.00 / no-ssim-rd / signhide / no-tskip / nr-intra=0 / nr-inter=0 / no-constrained-intra / no-strong-intra-smoothing / max-merge=3 / limit-refs=2 / limit-modes / me=3 / subme=5 / merange=57 / temporal-mvp / weightp / weightb / no-analyze-src-pics / deblock=0:0 / sao / no-sao-non-deblock / rd=6 / no-early-skip / rskip / no-fast-intra / no-tskip-fast / no-cu-lossless / b-intra / no-splitrd-skip / rdpenalty=0 / psy-rd=1.30 / psy-rdoq=2.00 / no-rd-refine / no-lossless / cbqpoffs=0 / crqpoffs=0 / rc=crf / crf=18.0 / qcomp=0.60 / qpstep=4 / stats-write=0 / stats-read=0 / ipratio=1.40 / pbratio=1.30 / aq-mode=2 / aq-strength=1.10 / cutree / zone-count=0 / no-strict-cbr / qg-size=32 / no-rc-grain / qpmax=69 / qpmin=0 / no-const-vbv / sar=1 / overscan=0 / videoformat=5 / range=0 / colorprim=2 / transfer=2 / colormatrix=2 / chromaloc=0 / display-window=0 / max-cll=0,0 / min-luma=0 / max-luma=1023 / log2-max-poc-lsb=8 / vui-timing-info / vui-hrd-info / slices=1 / no-opt-qp-pps / no-opt-ref-list-length-pps / no-multi-pass-opt-rps / scenecut-bias=0.05 / no-opt-cu-delta-qp / no-aq-motion / no-hdr / no-hdr-opt / no-dhdr10-opt / no-idr-recovery-sei / analysis-reuse-level=5 / scale-factor=0 / refine-intra=0 / refine-inter=0 / refine-mv=0 / no-limit-sao / ctu-info=0 / no-lowpass-dct / refine-mv-type=0 / copy-pic=1 / max-ausize-factor=1.0 / no-dynamic-refine / no-single-sei
Language : English
Default : Yes
Forced : No
Audio #1
ID : 2
Format : AC-3
Format/Info : Audio Coding 3
Commercial name : Dolby Digital
Codec ID : A_AC3
Duration : 45 min 50 s
Bit rate mode : Constant
Bit rate : 640 kb/s
Channel(s) : 6 channels
Channel layout : L R C LFE Ls Rs
Sampling rate : 48.0 kHz
Frame rate : 31.250 FPS (1536 SPF)
Bit depth : 16 bits
Compression mode : Lossy
Stream size : 210 MiB (5%)
Title : Surround 5.1
Language : English
Service kind : Complete Main
Default : No
Forced : No
Audio #2
ID : 3
Format : AC-3
Format/Info : Audio Coding 3
Commercial name : Dolby Digital
Codec ID : A_AC3
Duration : 45 min 50 s
Bit rate mode : Constant
Bit rate : 640 kb/s
Channel(s) : 6 channels
Channel layout : L R C LFE Ls Rs
Sampling rate : 48.0 kHz
Frame rate : 31.250 FPS (1536 SPF)
Bit depth : 16 bits
Compression mode : Lossy
Stream size : 210 MiB (5%)
Title : Surround 5.1
Language : English
Service kind : Complete Main
Default : No
Forced : No
Audio #3
ID : 4
Format : AC-3
Format/Info : Audio Coding 3
Commercial name : Dolby Digital
Codec ID : A_AC3
Duration : 45 min 50 s
Bit rate mode : Constant
Bit rate : 640 kb/s
Channel(s) : 1 channel
Channel layout : C
Sampling rate : 48.0 kHz
Frame rate : 31.250 FPS (1536 SPF)
Bit depth : 16 bits
Compression mode : Lossy
Stream size : 210 MiB (5%)
Title : Mono
Language : Japanese
Service kind : Complete Main
Default : No
Forced : No
Text #1
ID : 5
Format : PGS
Codec ID : S_HDMV/PGS
Codec ID/Info : Picture based subtitle format used on BDs/HD-DVDs
Duration : 43 min 37 s
Bit rate : 16.8 kb/s
Count of elements : 528
Stream size : 5.23 MiB (0%)
Language : English
Default : No
Forced : No
Text #2
ID : 6
Format : PGS
Codec ID : S_HDMV/PGS
Codec ID/Info : Picture based subtitle format used on BDs/HD-DVDs
Duration : 42 min 42 s
Bit rate : 2 278 b/s
Count of elements : 62
Stream size : 713 KiB (0%)
Language : English
Default : No
Forced : No
Menu
00:00:00.000 : en:Chapter 01
00:02:52.422 : en:Chapter 02
00:04:36.609 : en:Chapter 03
00:07:39.959 : en:Chapter 04
00:10:56.739 : en:Chapter 05
00:14:57.813 : en:Chapter 06
00:20:08.207 : en:Chapter 07
00:24:53.325 : en:Chapter 08
00:30:11.226 : en:Chapter 09
00:34:18.431 : en:Chapter 10
00:39:56.977 : en:Chapter 11
00:44:09.563 : en:Chapter 12

Source Information

Unique ID : 185858977965336088772207445135240965280 (0x8BD323199E76610EF42D1A95C4FBACA0)
Complete name : DBZ_ReturnCooler_t03.mkv
Format : Matroska
Format version : Version 2
File size : 7.95 GiB
Duration : 45 min 50 s
Overall bit rate mode : Variable
Overall bit rate : 24.8 Mb/s
Movie name : DBZ_CoolerRevenge_ReturnCooler
Encoded date : UTC 2019-09-10 02:04:46
Writing application : MakeMKV v1.14.2 win(x64-release)
Writing library : libmakemkv v1.14.2 (1.3.5/1.4.7) win(x64-release)
Video
ID : 1
ID in the original source medium : 4113 (0x1011)
Format : AVC
Format/Info : Advanced Video Codec
Format profile : [email protected]
Format settings : CABAC / 4 Ref Frames
Format settings, CABAC : Yes
Format settings, RefFrames : 4 frames
Codec ID : V_MPEG4/ISO/AVC
Duration : 45 min 50 s
Bit rate mode : Variable
Bit rate : 20.0 Mb/s
Maximum bit rate : 38.0 Mb/s
Width : 1 920 pixels
Height : 1 080 pixels
Display aspect ratio : 16:9
Frame rate mode : Constant
Frame rate : 23.976 (24000/1001) FPS
Color space : YUV
Chroma subsampling : 4:2:0
Bit depth : 8 bits
Scan type : Progressive
Bits/(Pixel*Frame) : 0.402
Stream size : 6.40 GiB (81%)
Language : English
Default : No
Forced : No
Color range : Limited
Color primaries : BT.709
Transfer characteristics : BT.709
Matrix coefficients : BT.709
Original source medium : Blu-ray
Audio #1
ID : 2
ID in the original source medium : 4352 (0x1100)
Format : MLP FBA
Format/Info : Meridian Lossless Packing FBA
Commercial name : Dolby TrueHD
Codec ID : A_TRUEHD
Duration : 45 min 50 s
Bit rate mode : Variable
Bit rate : 1 417 kb/s
Maximum bit rate : 2 232 kb/s
Channel(s) : 6 channels
Channel layout : L R C LFE Ls Rs
Sampling rate : 48.0 kHz
Frame rate : 1 200.000 FPS (40 SPF)
Bit depth : 24 bits
Compression mode : Lossless
Stream size : 465 MiB (6%)
Title : Surround 5.1
Language : English
Default : Yes
Forced : No
Original source medium : Blu-ray
Audio #2
ID : 3
ID in the original source medium : 4352 (0x1100)
Format : AC-3
Format/Info : Audio Coding 3
Commercial name : Dolby Digital
Codec ID : A_AC3
Duration : 45 min 50 s
Bit rate mode : Constant
Bit rate : 640 kb/s
Channel(s) : 6 channels
Channel layout : L R C LFE Ls Rs
Sampling rate : 48.0 kHz
Frame rate : 31.250 FPS (1536 SPF)
Bit depth : 16 bits
Compression mode : Lossy
Stream size : 210 MiB (3%)
Title : Surround 5.1
Language : English
Service kind : Complete Main
Default : No
Forced : No
Original source medium : Blu-ray
Audio #3
ID : 4
ID in the original source medium : 4353 (0x1101)
Format : MLP FBA
Format/Info : Meridian Lossless Packing FBA
Commercial name : Dolby TrueHD
Codec ID : A_TRUEHD
Duration : 45 min 50 s
Bit rate mode : Variable
Bit rate : 1 459 kb/s
Maximum bit rate : 2 235 kb/s
Channel(s) : 6 channels
Channel layout : L R C LFE Ls Rs
Sampling rate : 48.0 kHz
Frame rate : 1 200.000 FPS (40 SPF)
Bit depth : 24 bits
Compression mode : Lossless
Stream size : 478 MiB (6%)
Title : Surround 5.1
Language : English
Default : No
Forced : No
Original source medium : Blu-ray
Audio #4
ID : 5
ID in the original source medium : 4353 (0x1101)
Format : AC-3
Format/Info : Audio Coding 3
Commercial name : Dolby Digital
Codec ID : A_AC3
Duration : 45 min 50 s
Bit rate mode : Constant
Bit rate : 640 kb/s
Channel(s) : 6 channels
Channel layout : L R C LFE Ls Rs
Sampling rate : 48.0 kHz
Frame rate : 31.250 FPS (1536 SPF)
Bit depth : 16 bits
Compression mode : Lossy
Stream size : 210 MiB (3%)
Title : Surround 5.1
Language : English
Service kind : Complete Main
Default : No
Forced : No
Original source medium : Blu-ray
Audio #5
ID : 6
ID in the original source medium : 4354 (0x1102)
Format : AC-3
Format/Info : Audio Coding 3
Commercial name : Dolby Digital
Codec ID : A_AC3
Duration : 45 min 50 s
Bit rate mode : Constant
Bit rate : 640 kb/s
Channel(s) : 1 channel
Channel layout : C
Sampling rate : 48.0 kHz
Frame rate : 31.250 FPS (1536 SPF)
Bit depth : 16 bits
Compression mode : Lossy
Stream size : 210 MiB (3%)
Title : Mono
Language : Japanese
Service kind : Complete Main
Default : No
Forced : No
Original source medium : Blu-ray
Text #1
ID : 7
ID in the original source medium : 4608 (0x1200)
Format : PGS
Codec ID : S_HDMV/PGS
Codec ID/Info : Picture based subtitle format used on BDs/HD-DVDs
Duration : 43 min 37 s
Bit rate : 16.8 kb/s
Count of elements : 528
Stream size : 5.23 MiB (0%)
Language : English
Default : No
Forced : No
Original source medium : Blu-ray
Text #2
ID : 9
ID in the original source medium : 4609 (0x1201)
Format : PGS
Codec ID : S_HDMV/PGS
Codec ID/Info : Picture based subtitle format used on BDs/HD-DVDs
Duration : 42 min 42 s
Bit rate : 2 278 b/s
Count of elements : 62
Stream size : 713 KiB (0%)
Language : English
Default : No
Forced : No
Original source medium : Blu-ray
Menu
00:00:00.000 : en:Chapter 01
00:02:52.422 : en:Chapter 02
00:04:36.609 : en:Chapter 03
00:07:39.959 : en:Chapter 04
00:10:56.739 : en:Chapter 05
00:14:57.813 : en:Chapter 06
00:20:08.207 : en:Chapter 07
00:24:53.325 : en:Chapter 08
00:30:11.226 : en:Chapter 09
00:34:18.431 : en:Chapter 10
00:39:56.977 : en:Chapter 11
00:44:09.563 : en:Chapter 12

.........................................................................................................................................

Images:
https://i.postimg.cc/rFvtHwWJ/Goki2.png|https://musicart.xboxlive.com/7/44db5000-0000-0000-0000-000000000002/504/image.jpg|https://i.postimg.cc/Z5t0S47B/dbztroc1.png|https://i.postimg.cc/D010WNmy/dbztroc2.png|https://i.postimg.cc/26bVYyDW/dbztroc3.png|https://i.postimg.cc/CKvqY9n3/dbztroc4.png

Related at Dragon Ball Z - The Return of Cooler 1080p BDRip x265 10bit AC3 5 1 - Goki:
© 2019 www.gphi.it | Contacts | DMCA | Privacy Policy