» » Ghost in the Shell Arise - Border 1 - Ghost Pain 2013 1080p BDRip x265 10bit EAC3 5.1 - Goki
Language: English
Size: 1.5 GB
Rating: 4.5
Category: Dual Audio
Votes: 312
Ghost in the Shell Arise - Border 1 - Ghost Pain 2013 1080p BDRip x265 10bit EAC3 5.1 - Goki
Files:
Ghost in the Shell Arise - Border 1 - Ghost Pain (2013) (1080p BDRip x265 10bit EAC3 5.1 - Goki)
  • Ghost in the Shell Arise - Border 1 - Ghost Pain (2013) (1080p BDRip x265 10bit EAC3 5.1 - Goki).mkv (1.5 GB)
  • Ghost in the Shell Arise - Border 1 - Ghost Pain (2013) (1080p BDRip x265 10bit EAC3 5.1 - Goki).nfo (6.6 KB)
  • Ghost in the Shell Arise - Border 1 - Ghost Pain (2013) (1080p BDRip x265 10bit EAC3 5.1 - Goki)-banner.jpg (40.8 KB)
  • Ghost in the Shell Arise - Border 1 - Ghost Pain (2013) (1080p BDRip x265 10bit EAC3 5.1 - Goki)-clearart.png (356.3 KB)
  • Ghost in the Shell Arise - Border 1 - Ghost Pain (2013) (1080p BDRip x265 10bit EAC3 5.1 - Goki)-clearlogo.png (71.5 KB)
  • Ghost in the Shell Arise - Border 1 - Ghost Pain (2013) (1080p BDRip x265 10bit EAC3 5.1 - Goki)-fanart.jpg (109.8 KB)
  • Ghost in the Shell Arise - Border 1 - Ghost Pain (2013) (1080p BDRip x265 10bit EAC3 5.1 - Goki)-logo.png (71.5 KB)
  • Ghost in the Shell Arise - Border 1 - Ghost Pain (2013) (1080p BDRip x265 10bit EAC3 5.1 - Goki)-poster.jpg (168.4 KB)


Ghost Pain explores the back-story of not only Section 9, and how it began to be formed, but how the .

Ghost Pain explores the back-story of not only Section 9, and how it began to be formed, but how the Major came to become fully cyborg. This endeavor is quite ambitious, and would have worked perfectly, if the feature had not decided to reinvent everything. During Masamune's manga, Ghost in the Shell 2 Man-Machine Interface, Motoko reveals she underwent the procedure to become completely cyborg when she was just a child.

mkv is a standard format. You are the one in the wrong for not google one of a thousand different methods for playing them. That or convert it yourself. You found your way here.

Video: MPEG4 Video (H264) 1280x720 2. 76fps Audio: AAC 48000Hz stereo. mkv is a standard format.

GHOST IN THE SHELL/攻殻機動隊』特別価格Blu-ray 発売告知PV - Продолжительность: 2:02 BANDAI .

All characters are upper case, and there are no zeros (0) and ones (1) in the above image.

mp4 (. 18 GB). Download. AnonFiles: Part1, Part2, Part3, Part4, Part5, Part6, Part7, Part8, Part9, Part10, Part11, Part12, Part13, Part14 Jheberg: Part1▼. All characters are upper case, and there are no zeros (0) and ones (1) in the above image. Apparently bots aren't as good as humans at this game. Image Verification Passed.

Someday, she’s picked up by an bold on line casino supervisor named Shell who provides her every thing she ma. ountry: Japan. Genre: Action, Animation, Drama, Thriller. Please help us to describe the issue so we can fix it asap.

In this prequel set one year after the fourth World War, cyborg and hacker extraordinaire Motoko Kusanagi from the military?s 501st Secret Unit finds herself wrapped up in the investigation of a devastating bombing.

Banjo on Kandagawa Jet Girls 720p Eng Sub 10bit x265.

Bear with the pain for a little more time, we are doing everything we can to bring you the anime you want, fresh. Banjo on Kandagawa Jet Girls 720p Eng Sub 10bit x265. Mihir Dalvi on Dragon Ball Kai The Final Chapters 480p BD Dual Audio. The Anime Download Calendar.



Ghost in the Shell Arise: Border 1 - Ghost Pain IMDB

Screenshots





Media Information

Unique ID : 77501258278712308125001668853878906269 (0x3A4E330C2F27A77E62F7351B1EF65D9D)
Complete name : Ghost in the Shell Arise - Border 1 - Ghost Pain (1080p BDRip x265 10bit EAC3 5.1 - Goki).mkv
Format : Matroska
Format version : Version 4
File size : 1.52 GiB
Duration : 58 min 5 s
Overall bit rate : 3 747 kb/s
Movie name : Ghost in the Shell Arise - Border 1 - Ghost Pain (1080p BDRip x265 10bit EAC3 5.1 - Goki).mkv
Encoded date : UTC 2019-10-14 03:34:56
Writing application : mkvmerge v28.2.0 ('The Awakening') 64-bit
Writing library : libebml v1.3.6 + libmatroska v1.4.9
Video
ID : 1
Format : HEVC
Format/Info : High Efficiency Video Coding
Format profile : Main [email protected]@Main
Codec ID : V_MPEGH/ISO/HEVC
Duration : 58 min 5 s
Bit rate : 2 814 kb/s
Width : 1 920 pixels
Height : 1 080 pixels
Display aspect ratio : 16:9
Frame rate mode : Constant
Frame rate : 23.976 (24000/1001) FPS
Color space : YUV
Chroma subsampling : 4:2:0
Bit depth : 10 bits
Bits/(Pixel*Frame) : 0.057
Stream size : 1.14 GiB (75%)
Writing library : x265 2.9+8-27d8424c799d:[Windows][MSVC 1915][64 bit] 10bit
Encoding settings : cpuid=1111039 / frame-threads=2 / numa-pools=4 / wpp / no-pmode / no-pme / no-psnr / no-ssim / log-level=2 / input-csp=1 / input-res=1920x1080 / interlace=0 / total-frames=0 / level-idc=0 / high-tier=1 / uhd-bd=0 / ref=4 / no-allow-non-conformance / no-repeat-headers / annexb / no-aud / no-hrd / info / hash=0 / no-temporal-layers / open-gop / min-keyint=23 / keyint=250 / gop-lookahead=0 / bframes=8 / b-adapt=2 / b-pyramid / bframe-bias=0 / rc-lookahead=100 / lookahead-slices=4 / scenecut=40 / radl=0 / no-intra-refresh / ctu=64 / min-cu-size=8 / no-rect / no-amp / max-tu-size=32 / tu-inter-depth=2 / tu-intra-depth=2 / limit-tu=4 / rdoq-level=2 / dynamic-rd=0.00 / no-ssim-rd / signhide / no-tskip / nr-intra=0 / nr-inter=0 / no-constrained-intra / no-strong-intra-smoothing / max-merge=3 / limit-refs=2 / limit-modes / me=3 / subme=5 / merange=57 / temporal-mvp / weightp / weightb / no-analyze-src-pics / deblock=0:0 / sao / no-sao-non-deblock / rd=6 / no-early-skip / rskip / no-fast-intra / no-tskip-fast / no-cu-lossless / b-intra / no-splitrd-skip / rdpenalty=0 / psy-rd=1.30 / psy-rdoq=2.00 / no-rd-refine / no-lossless / cbqpoffs=0 / crqpoffs=0 / rc=crf / crf=18.0 / qcomp=0.60 / qpstep=4 / stats-write=0 / stats-read=0 / ipratio=1.40 / pbratio=1.30 / aq-mode=2 / aq-strength=1.10 / cutree / zone-count=0 / no-strict-cbr / qg-size=32 / no-rc-grain / qpmax=69 / qpmin=0 / no-const-vbv / sar=1 / overscan=0 / videoformat=5 / range=0 / colorprim=2 / transfer=2 / colormatrix=2 / chromaloc=0 / display-window=0 / max-cll=0,0 / min-luma=0 / max-luma=1023 / log2-max-poc-lsb=8 / vui-timing-info / vui-hrd-info / slices=1 / no-opt-qp-pps / no-opt-ref-list-length-pps / no-multi-pass-opt-rps / scenecut-bias=0.05 / no-opt-cu-delta-qp / no-aq-motion / no-hdr / no-hdr-opt / no-dhdr10-opt / no-idr-recovery-sei / analysis-reuse-level=5 / scale-factor=0 / refine-intra=0 / refine-inter=0 / refine-mv=0 / no-limit-sao / ctu-info=0 / no-lowpass-dct / refine-mv-type=0 / copy-pic=1 / max-ausize-factor=1.0 / no-dynamic-refine / no-single-sei
Default : Yes
Forced : No
Audio #1
ID : 2
Format : E-AC-3
Format/Info : Enhanced AC-3
Commercial name : Dolby Digital Plus
Codec ID : A_EAC3
Duration : 58 min 5 s
Bit rate mode : Constant
Bit rate : 448 kb/s
Channel(s) : 6 channels
Channel layout : L R C LFE Ls Rs
Sampling rate : 48.0 kHz
Frame rate : 31.250 FPS (1536 SPF)
Compression mode : Lossy
Stream size : 186 MiB (12%)
Language : English
Service kind : Complete Main
Default : Yes
Forced : No
Audio #2
ID : 3
Format : E-AC-3
Format/Info : Enhanced AC-3
Commercial name : Dolby Digital Plus
Codec ID : A_EAC3
Duration : 58 min 5 s
Bit rate mode : Constant
Bit rate : 448 kb/s
Channel(s) : 6 channels
Channel layout : L R C LFE Ls Rs
Sampling rate : 48.0 kHz
Frame rate : 31.250 FPS (1536 SPF)
Compression mode : Lossy
Stream size : 186 MiB (12%)
Language : Japanese
Service kind : Complete Main
Default : No
Forced : No
Text #1
ID : 4
Format : PGS
Codec ID : S_HDMV/PGS
Codec ID/Info : Picture based subtitle format used on BDs/HD-DVDs
Duration : 45 min 2 s
Bit rate : 2 869 b/s
Count of elements : 84
Stream size : 947 KiB (0%)
Title : Non English
Language : English
Default : Yes
Forced : No
Text #2
ID : 5
Format : PGS
Codec ID : S_HDMV/PGS
Codec ID/Info : Picture based subtitle format used on BDs/HD-DVDs
Duration : 56 min 50 s
Bit rate : 33.5 kb/s
Count of elements : 1080
Stream size : 13.6 MiB (1%)
Language : English
Default : No
Forced : No
Menu
00:00:00.000 : :Chapter 01
00:01:40.850 : :Chapter 02
00:02:42.287 : :Chapter 03
00:16:21.563 : :Chapter 04
00:34:03.416 : :Chapter 05
00:53:04.389 : :Chapter 06
00:57:40.457 : :Chapter 07
00:58:05.523 : :Chapter 08

Source Information

Unique ID : 100892175421956279794917806424847011525 (0x4BE7204D544D51A655D9E7B7F61BCEC5)
Complete name : Ghost in the Shell Arise - Alternative Architecture S00E02 'Ghost in the Shell Arise - Border 1 Ghost Pain'.mkv
Format : Matroska
Format version : Version 4
File size : 13.7 GiB
Duration : 58 min 5 s
Overall bit rate mode : Variable
Overall bit rate : 33.8 Mb/s
Encoded date : UTC 2018-04-28 04:52:26
Writing application : mkvmerge v21.0.0 ('Tardigrades Will Inherit The Earth') 64-bit
Writing library : libebml v1.3.5 + libmatroska v1.4.8
Video
ID : 1
Format : AVC
Format/Info : Advanced Video Codec
Format profile : [email protected]
Format settings : CABAC / 4 Ref Frames
Format settings, CABAC : Yes
Format settings, Reference frames : 4 frames
Codec ID : V_MPEG4/ISO/AVC
Duration : 58 min 5 s
Bit rate mode : Variable
Bit rate : 29.0 Mb/s
Maximum bit rate : 38.0 Mb/s
Width : 1 920 pixels
Height : 1 080 pixels
Display aspect ratio : 16:9
Frame rate mode : Constant
Frame rate : 23.976 (24000/1001) FPS
Color space : YUV
Chroma subsampling : 4:2:0
Bit depth : 8 bits
Scan type : Progressive
Bits/(Pixel*Frame) : 0.583
Stream size : 11.8 GiB (86%)
Default : Yes
Forced : No
Audio #1
ID : 2
Format : MLP FBA
Format/Info : Meridian Lossless Packing FBA
Commercial name : Dolby TrueHD
Codec ID : A_TRUEHD
Duration : 58 min 5 s
Bit rate mode : Variable
Bit rate : 2 148 kb/s
Maximum bit rate : 3 822 kb/s
Channel(s) : 6 channels
Channel layout : L R C LFE Ls Rs
Sampling rate : 48.0 kHz
Frame rate : 1 200.000 FPS (40 SPF)
Compression mode : Lossless
Stream size : 893 MiB (6%)
Language : English
Default : Yes
Forced : No
Audio #2
ID : 3
Format : AC-3
Format/Info : Audio Coding 3
Commercial name : Dolby Digital
Codec ID : A_AC3
Duration : 58 min 5 s
Bit rate mode : Constant
Bit rate : 448 kb/s
Channel(s) : 6 channels
Channel layout : L R C LFE Ls Rs
Sampling rate : 48.0 kHz
Frame rate : 31.250 FPS (1536 SPF)
Compression mode : Lossy
Stream size : 186 MiB (1%)
Language : English
Service kind : Complete Main
Default : No
Forced : No
Audio #3
ID : 4
Format : MLP FBA
Format/Info : Meridian Lossless Packing FBA
Commercial name : Dolby TrueHD
Codec ID : A_TRUEHD
Duration : 58 min 5 s
Bit rate mode : Variable
Bit rate : 1 617 kb/s
Maximum bit rate : 2 976 kb/s
Channel(s) : 6 channels
Channel layout : L R C LFE Ls Rs
Sampling rate : 48.0 kHz
Frame rate : 1 200.000 FPS (40 SPF)
Compression mode : Lossless
Stream size : 672 MiB (5%)
Language : Japanese
Default : No
Forced : No
Audio #4
ID : 5
Format : AC-3
Format/Info : Audio Coding 3
Commercial name : Dolby Digital
Codec ID : A_AC3
Duration : 58 min 5 s
Bit rate mode : Constant
Bit rate : 448 kb/s
Channel(s) : 6 channels
Channel layout : L R C LFE Ls Rs
Sampling rate : 48.0 kHz
Frame rate : 31.250 FPS (1536 SPF)
Compression mode : Lossy
Stream size : 186 MiB (1%)
Language : Japanese
Service kind : Complete Main
Default : No
Forced : No
Text #1
ID : 6
Format : PGS
Muxing mode : zlib
Codec ID : S_HDMV/PGS
Codec ID/Info : Picture based subtitle format used on BDs/HD-DVDs
Duration : 56 min 50 s
Bit rate : 33.5 kb/s
Count of elements : 1080
Stream size : 13.6 MiB (0%)
Language : English
Default : No
Forced : No
Text #2
ID : 7
Format : PGS
Muxing mode : zlib
Codec ID : S_HDMV/PGS
Codec ID/Info : Picture based subtitle format used on BDs/HD-DVDs
Duration : 45 min 2 s
Bit rate : 2 869 b/s
Count of elements : 84
Stream size : 947 KiB (0%)
Title : Signs & Songs
Language : English
Default : Yes
Forced : No
Menu
00:00:00.000 : en:Chapter 01
00:01:40.850 : en:Chapter 02
00:02:42.287 : en:Chapter 03
00:16:21.563 : en:Chapter 04
00:34:03.416 : en:Chapter 05
00:53:04.389 : en:Chapter 06
00:57:40.457 : en:Chapter 07
00:58:05.523 : en:Chapter 08

.........................................................................................................................................

Images:
https://i.postimg.cc/rFvtHwWJ/Goki2.png|https://i.postimg.cc/FHXbwztK/ghost-in-the-shell-arise-border-1-ghost-pain-56f9f9419184a.png|https://i.postimg.cc/6q568dGQ/ghostitsab1a.png|https://i.postimg.cc/bN5YvSYz/ghostitsab1b.png|https://i.postimg.cc/sx6j7vp4/ghostitsab1c.png|https://i.postimg.cc/3JNJ7FTS/ghostitsab1d.png

Related at Ghost in the Shell Arise - Border 1 - Ghost Pain :
Comments 2
Insanity
mmmm what a coicidence i just downloaded it a week agornhahahaha thanks
Wafi
No problemo!
© 2019 www.gphi.it | Contacts | DMCA | Privacy Policy