» » Ghost in the Shell Arise - Border 3 - Ghost Tears 2014 1080p BDRip x265 10bit EAC3 5.1 - Goki
Language: English
Size: 1.7 GB
Rating: 4.1
Category: Dual Audio
Votes: 928
Ghost in the Shell Arise - Border 3 - Ghost Tears 2014 1080p BDRip x265 10bit EAC3 5.1 - Goki
Files:
Ghost in the Shell Arise - Border 3 - Ghost Tears (2014) (1080p BDRip x265 10bit EAC3 5.1 - Goki)
  • Ghost in the Shell Arise - Border 3 - Ghost Tears (2014) (1080p BDRip x265 10bit EAC3 5.1 - Goki).mkv (1.7 GB)
  • Ghost in the Shell Arise - Border 3 - Ghost Tears (2014) (1080p BDRip x265 10bit EAC3 5.1 - Goki).nfo (5.3 KB)
  • Ghost in the Shell Arise - Border 3 - Ghost Tears (2014) (1080p BDRip x265 10bit EAC3 5.1 - Goki)-banner.jpg (65.6 KB)
  • Ghost in the Shell Arise - Border 3 - Ghost Tears (2014) (1080p BDRip x265 10bit EAC3 5.1 - Goki)-clearlogo.png (72.3 KB)
  • Ghost in the Shell Arise - Border 3 - Ghost Tears (2014) (1080p BDRip x265 10bit EAC3 5.1 - Goki)-fanart.jpg (136.5 KB)
  • Ghost in the Shell Arise - Border 3 - Ghost Tears (2014) (1080p BDRip x265 10bit EAC3 5.1 - Goki)-logo.png (72.3 KB)
  • Ghost in the Shell Arise - Border 3 - Ghost Tears (2014) (1080p BDRip x265 10bit EAC3 5.1 - Goki)-poster.jpg (80.1 KB)


51:00 Writing application : MakeMKV v. 2. 0 win(x64-release) Writing library : libmakemkv v.

0 win(x64-release) Writing library : libmakemkv v.

application : MakeMKV v.

Overall bit rate : 3. Mb/s Encoded date : UTC 2018-04-28 06:01:20 Writing application : MakeMKV v.

Pipto : Hi Im looking for the Minion short in 1080p released with The Grinch called Santa's Little Helpers. El Topo (1970) 1080p and 720p BluRay x264 DTS . + DVDRip AC3 with English Subtitles The Last Days of Jesus (2017) HDTV x264

Pipto : Hi Im looking for the Minion short in 1080p released with The Grinch called Santa's Little Helpers. + DVDRip AC3 with English Subtitles The Last Days of Jesus (2017) HDTV x264. Posing as lovers on vacation, Motoko and Batou work to try to stop a terrorist organization whose symbol is the Scrasath.

PwntSoup at 2014-09-15 21:46 CET

Get this torrent PLAY/STREAM TORRENT. PwntSoup at 2014-09-15 21:46 CET

Directed by Kazuchika Kise. With Maaya Sakamoto, Ikkyu Juku, Ken'ichirô Matsuda, Tarusuke Shingaki. Motoko and Batou work to try to stop a terrorist organization whose symbol is the Scylla

Directed by Kazuchika Kise. Motoko and Batou work to try to stop a terrorist organization whose symbol is the Scylla. Meanwhile, Togusa investigates a murder of a man who possessed a prosthetic leg manufactured by the Mermaid's Leg corporation.

Synopsis Third movie of Ghost in the Shell: Arise.

mkv (98. MB). Description. Audio ID : 3 Format : AAC Format/Info : Advanced Audio Codec Format profile : LC Codec ID : A AAC Duration : 58 min 20 s Bit rate : 265 kb/s Channel(s) : 6 channels Channel positions : Front: L C R, Side: L R, LFE Sampling rate : 4. kHz Frame rate : 4. 75 FPS (1024 spf) Compression mode : Lossy Delay relative to video : 9 ms.

Notes: - All Movies MP4 Format! - All Movies 720 or 1080 Bluray! - No ads when Watch!

Notes: - All Movies MP4 Format! - All Movies 720 or 1080 Bluray! - No ads when Watch! We Are humans and we may make mistakes, please report if there is an error. The animes story is set in 2027, one year after the end of the fourth non-nuclear war. New Port City is still reeling from the wars aftermath when it suffers a bombing caused by a self-propelled mine. Then, a military member implicated in arms-dealing bribes is gunned down. During the investigation, Public Security Sections Daisuke Aramaki encounters Motoko Kusanagi, the cyborg wizard-level hacker assigned to the militarys 501st Secret Unit.



Ghost in the Shell Arise - Border 3 - Ghost Tears IMDB

Screenshots





Media Information

Unique ID : 229532152809293550883449451412267656965 (0xACAE48DD7ABE976B7B17D414B2AEE705)
Complete name : Ghost in the Shell Arise - Border 3 - Ghost Tears (1080p BDRip x265 10bit EAC3 5.1 - Goki).mkv
Format : Matroska
Format version : Version 4
File size : 1.69 GiB
Duration : 58 min 20 s
Overall bit rate : 4 149 kb/s
Movie name : Ghost in the Shell Arise - Border 3 - Ghost Tears (1080p BDRip x265 10bit EAC3 5.1 - Goki).mkv
Encoded date : UTC 2019-10-18 18:21:51
Writing application : mkvmerge v28.2.0 ('The Awakening') 64-bit
Writing library : libebml v1.3.6 + libmatroska v1.4.9
Video
ID : 1
Format : HEVC
Format/Info : High Efficiency Video Coding
Format profile : Main [email protected]@Main
Codec ID : V_MPEGH/ISO/HEVC
Duration : 58 min 20 s
Bit rate : 3 211 kb/s
Width : 1 920 pixels
Height : 1 080 pixels
Display aspect ratio : 16:9
Frame rate mode : Constant
Frame rate : 23.976 (24000/1001) FPS
Color space : YUV
Chroma subsampling : 4:2:0
Bit depth : 10 bits
Bits/(Pixel*Frame) : 0.065
Stream size : 1.31 GiB (77%)
Writing library : x265 2.9+8-27d8424c799d:[Windows][MSVC 1915][64 bit] 10bit
Encoding settings : cpuid=1111039 / frame-threads=2 / numa-pools=4 / wpp / no-pmode / no-pme / no-psnr / no-ssim / log-level=2 / input-csp=1 / input-res=1920x1080 / interlace=0 / total-frames=0 / level-idc=0 / high-tier=1 / uhd-bd=0 / ref=4 / no-allow-non-conformance / no-repeat-headers / annexb / no-aud / no-hrd / info / hash=0 / no-temporal-layers / open-gop / min-keyint=23 / keyint=250 / gop-lookahead=0 / bframes=8 / b-adapt=2 / b-pyramid / bframe-bias=0 / rc-lookahead=100 / lookahead-slices=4 / scenecut=40 / radl=0 / no-intra-refresh / ctu=64 / min-cu-size=8 / no-rect / no-amp / max-tu-size=32 / tu-inter-depth=2 / tu-intra-depth=2 / limit-tu=4 / rdoq-level=2 / dynamic-rd=0.00 / no-ssim-rd / signhide / no-tskip / nr-intra=0 / nr-inter=0 / no-constrained-intra / no-strong-intra-smoothing / max-merge=3 / limit-refs=2 / limit-modes / me=3 / subme=5 / merange=57 / temporal-mvp / weightp / weightb / no-analyze-src-pics / deblock=0:0 / sao / no-sao-non-deblock / rd=6 / no-early-skip / rskip / no-fast-intra / no-tskip-fast / no-cu-lossless / b-intra / no-splitrd-skip / rdpenalty=0 / psy-rd=1.30 / psy-rdoq=2.00 / no-rd-refine / no-lossless / cbqpoffs=0 / crqpoffs=0 / rc=crf / crf=18.0 / qcomp=0.60 / qpstep=4 / stats-write=0 / stats-read=0 / ipratio=1.40 / pbratio=1.30 / aq-mode=2 / aq-strength=1.10 / cutree / zone-count=0 / no-strict-cbr / qg-size=32 / no-rc-grain / qpmax=69 / qpmin=0 / no-const-vbv / sar=1 / overscan=0 / videoformat=5 / range=0 / colorprim=2 / transfer=2 / colormatrix=2 / chromaloc=0 / display-window=0 / max-cll=0,0 / min-luma=0 / max-luma=1023 / log2-max-poc-lsb=8 / vui-timing-info / vui-hrd-info / slices=1 / no-opt-qp-pps / no-opt-ref-list-length-pps / no-multi-pass-opt-rps / scenecut-bias=0.05 / no-opt-cu-delta-qp / no-aq-motion / no-hdr / no-hdr-opt / no-dhdr10-opt / no-idr-recovery-sei / analysis-reuse-level=5 / scale-factor=0 / refine-intra=0 / refine-inter=0 / refine-mv=0 / no-limit-sao / ctu-info=0 / no-lowpass-dct / refine-mv-type=0 / copy-pic=1 / max-ausize-factor=1.0 / no-dynamic-refine / no-single-sei
Language : English
Default : Yes
Forced : No
Audio #1
ID : 2
Format : E-AC-3
Format/Info : Enhanced AC-3
Commercial name : Dolby Digital Plus
Codec ID : A_EAC3
Duration : 58 min 20 s
Bit rate mode : Constant
Bit rate : 448 kb/s
Channel(s) : 6 channels
Channel layout : L R C LFE Ls Rs
Sampling rate : 48.0 kHz
Frame rate : 31.250 FPS (1536 SPF)
Compression mode : Lossy
Stream size : 187 MiB (11%)
Title : Surround 5.1
Language : English
Service kind : Complete Main
Default : Yes
Forced : No
Audio #2
ID : 3
Format : E-AC-3
Format/Info : Enhanced AC-3
Commercial name : Dolby Digital Plus
Codec ID : A_EAC3
Duration : 58 min 20 s
Bit rate mode : Constant
Bit rate : 448 kb/s
Channel(s) : 6 channels
Channel layout : L R C LFE Ls Rs
Sampling rate : 48.0 kHz
Frame rate : 31.250 FPS (1536 SPF)
Compression mode : Lossy
Stream size : 187 MiB (11%)
Title : Surround 5.1
Language : Japanese
Service kind : Complete Main
Default : No
Forced : No
Text #1
ID : 4
Format : PGS
Codec ID : S_HDMV/PGS
Codec ID/Info : Picture based subtitle format used on BDs/HD-DVDs
Duration : 58 min 10 s
Bit rate : 0 b/s
Count of elements : 4
Stream size : 140 Bytes (0%)
Title : Signs and text only
Language : English
Default : Yes
Forced : No
Text #2
ID : 5
Format : PGS
Codec ID : S_HDMV/PGS
Codec ID/Info : Picture based subtitle format used on BDs/HD-DVDs
Duration : 56 min 27 s
Bit rate : 41.7 kb/s
Count of elements : 1352
Stream size : 16.8 MiB (1%)
Language : English
Default : No
Forced : No
Menu
00:00:00.000 : en:Chapter 01
00:03:49.771 : en:Chapter 02
00:04:51.291 : en:Chapter 03
00:19:57.362 : en:Chapter 04
00:39:52.098 : en:Chapter 05
00:53:49.726 : en:Chapter 06
00:57:46.463 : en:Chapter 07
00:58:10.528 : en:Chapter 08

Source Information

Unique ID : 132879046116318637508670659669846077683 (0x63F792C9AAE676B35B53A1BA56EB30F3)
Complete name : Ghost in the Shell Arise - Alternative Architecture S00E04 'Ghost in the Shell Arise - Border 3 Ghost Tears.mkv
Format : Matroska
Format version : Version 2
File size : 10.9 GiB
Duration : 58 min 20 s
Overall bit rate mode : Variable
Overall bit rate : 26.7 Mb/s
Encoded date : UTC 2018-04-28 05:51:00
Writing application : MakeMKV v1.12.0 win(x64-release)
Writing library : libmakemkv v1.12.0 (1.3.5/1.4.7) win(x64-release)
Video
ID : 1
ID in the original source medium : 4113 (0x1011)
Format : AVC
Format/Info : Advanced Video Codec
Format profile : [email protected]
Format settings : CABAC / 4 Ref Frames
Format settings, CABAC : Yes
Format settings, Reference frames : 4 frames
Codec ID : V_MPEG4/ISO/AVC
Duration : 58 min 20 s
Bit rate mode : Variable
Bit rate : 20.9 Mb/s
Maximum bit rate : 39.5 Mb/s
Width : 1 920 pixels
Height : 1 080 pixels
Display aspect ratio : 16:9
Frame rate mode : Constant
Frame rate : 23.976 (24000/1001) FPS
Color space : YUV
Chroma subsampling : 4:2:0
Bit depth : 8 bits
Scan type : Progressive
Bits/(Pixel*Frame) : 0.421
Stream size : 8.53 GiB (78%)
Language : English
Default : No
Forced : No
Original source medium : Blu-ray
Audio #1
ID : 2
ID in the original source medium : 4352 (0x1100)
Format : MLP FBA
Format/Info : Meridian Lossless Packing FBA
Commercial name : Dolby TrueHD
Codec ID : A_TRUEHD
Duration : 58 min 20 s
Bit rate mode : Variable
Bit rate : 2 260 kb/s
Maximum bit rate : 3 951 kb/s
Channel(s) : 6 channels
Channel layout : L R C LFE Ls Rs
Sampling rate : 48.0 kHz
Frame rate : 1 200.000 FPS (40 SPF)
Bit depth : 24 bits
Compression mode : Lossless
Stream size : 943 MiB (8%)
Title : Surround 5.1
Language : English
Default : Yes
Forced : No
Original source medium : Blu-ray
Audio #2
ID : 3
ID in the original source medium : 4352 (0x1100)
Format : AC-3
Format/Info : Audio Coding 3
Commercial name : Dolby Digital
Codec ID : A_AC3
Duration : 58 min 20 s
Bit rate mode : Constant
Bit rate : 448 kb/s
Channel(s) : 6 channels
Channel layout : L R C LFE Ls Rs
Sampling rate : 48.0 kHz
Frame rate : 31.250 FPS (1536 SPF)
Compression mode : Lossy
Stream size : 187 MiB (2%)
Title : Surround 5.1
Language : English
Service kind : Complete Main
Default : No
Forced : No
Original source medium : Blu-ray
Audio #3
ID : 4
ID in the original source medium : 4353 (0x1101)
Format : MLP FBA
Format/Info : Meridian Lossless Packing FBA
Commercial name : Dolby TrueHD
Codec ID : A_TRUEHD
Duration : 58 min 20 s
Bit rate mode : Variable
Bit rate : 2 520 kb/s
Maximum bit rate : 4 245 kb/s
Channel(s) : 6 channels
Channel layout : L R C LFE Ls Rs
Sampling rate : 48.0 kHz
Frame rate : 1 200.000 FPS (40 SPF)
Bit depth : 24 bits
Compression mode : Lossless
Stream size : 1.03 GiB (9%)
Title : Surround 5.1
Language : Japanese
Default : No
Forced : No
Original source medium : Blu-ray
Audio #4
ID : 5
ID in the original source medium : 4353 (0x1101)
Format : AC-3
Format/Info : Audio Coding 3
Commercial name : Dolby Digital
Codec ID : A_AC3
Duration : 58 min 20 s
Bit rate mode : Constant
Bit rate : 448 kb/s
Channel(s) : 6 channels
Channel layout : L R C LFE Ls Rs
Sampling rate : 48.0 kHz
Frame rate : 31.250 FPS (1536 SPF)
Compression mode : Lossy
Stream size : 187 MiB (2%)
Title : Surround 5.1
Language : Japanese
Service kind : Complete Main
Default : No
Forced : No
Original source medium : Blu-ray
Text #1
ID : 6
ID in the original source medium : 4608 (0x1200)
Format : PGS
Codec ID : S_HDMV/PGS
Codec ID/Info : Picture based subtitle format used on BDs/HD-DVDs
Duration : 56 min 27 s
Bit rate : 41.7 kb/s
Count of elements : 1352
Stream size : 16.8 MiB (0%)
Language : English
Default : No
Forced : No
Original source medium : Blu-ray
Text #2
ID : 8
ID in the original source medium : 4609 (0x1201)
Format : PGS
Codec ID : S_HDMV/PGS
Codec ID/Info : Picture based subtitle format used on BDs/HD-DVDs
Duration : 58 min 10 s
Bit rate : 0 b/s
Count of elements : 4
Stream size : 140 Bytes (0%)
Title : Signs & Songs
Language : English
Default : Yes
Forced : No
Original source medium : Blu-ray
Menu
00:00:00.000 : en:Chapter 01
00:03:49.771 : en:Chapter 02
00:04:51.291 : en:Chapter 03
00:19:57.362 : en:Chapter 04
00:39:52.098 : en:Chapter 05
00:53:49.726 : en:Chapter 06
00:57:46.463 : en:Chapter 07
00:58:10.528 : en:Chapter 08

.........................................................................................................................................

Images:
https://i.postimg.cc/rFvtHwWJ/Goki2.png|https://fanart.tv/fanart/movies/240341/hdmovielogo/ghost-in-the-shell-arise---border-3-ghost-tears-56f9f9a41f843.png|https://i.postimg.cc/hGHcY6Lp/ghostitsab3a.png|https://i.postimg.cc/bv2j1g7b/ghostitsab3b.png|https://i.postimg.cc/52Th9vXt/ghostitsab3c.png|https://i.postimg.cc/wMFK9GNK/ghostitsab3d.png

Related at Ghost in the Shell Arise - Border 3 - Ghost Tears :
© 2019 www.gphi.it | Contacts | DMCA | Privacy Policy