» » Redline 720p H264 ita jpn Ac3-5 1 sub ita eng-MIRCrew 2009
Language: Italian
Size: 1.8 GB
Rating: 4.5
Category: Dual Audio
Votes: 364
Redline 720p H264 ita jpn Ac3-5 1 sub ita eng-MIRCrew 2009
Files:
Redline (2009).720p.ita.jpn.Ac3 5.1.sub.ita.eng-MIRCrew
  • Redline (2009).720p.ita.jpn.Ac3 5.1.sub.ita.eng-MIRCrew.eng.ass (128.0 KB)
  • Redline (2009).720p.ita.jpn.Ac3 5.1.sub.ita.eng-MIRCrew.ita.srt (86.7 KB)
  • Redline (2009).720p.ita.jpn.Ac3 5.1.sub.ita.eng-MIRCrew.mkv (1.8 GB)
  • Redline (2009).720p.ita.jpn.Ac3 5.1.sub.ita.eng-MIRCrew.srt (0.9 KB)


Z ac3 ITA ENG JAP sub ITA ENG FRA by Sa.

to Redline (2009) 720p ita jpn Ac3 5 1 sub ita eng-MIRCrew anime. com Redline (2009) 720p ita jpn Ac3 5 1 sub ita eng-MIRCrew Anime. You cannot download any of those files from here. The Morning Show 1s, Th. andmaids 1s, terminator dark fate 2019 1s, the walking dead s10e05 amzn 2s, title: Murdoch Mysteries S06 2s, stranger things 3 480p 0s, title: .

8. KB. Glass (2019). Audio ID : 2 Format : AC-3 Format/Info : Audio Coding 3 Mode extension : CM (complete main) Codec ID : A AC3 Duration : 2h 9mn Bit rate mode : Constant Bit rate : 448 Kbps Channel(s) : 6 channels Channel positions : Front: L C R, Side: L R, LFE Sampling rate : 4. KHz Bit depth : 16 bits Compression mode : Lossy Delay relative.

Glass 2019 iTALiAN AC3 BRRip XviD-T4P3.

307 B. Related Torrents. Glass 2019 iTALiAN AC3 BRRip XviD-T4P3. GB. 1. 7 months ago. 2. 75. Glass p WEB-DL DD5 1 H264-CMRG. Posted in Highres Movies. 3. 0. Glass p WEB-DL DD5 1 H264.

No found only original release. My release is always in double track audio italian and Original audio for select it use VLC or dvd player home not use wmp. Redline (2009). Titolo originale ??? Lingua originale Giapponese Paese di produzione Giappone Anno 2009 Durata 101 min Rapporto . 5:1 Genere animazione, azione, fantascienza Regia Takeshi Koike Soggetto Katsuhito Ishii Sceneggiatura Katsuhito Ishii, Yoji Enokido, Yoshiki Sakurai Produttore Kentar?

10 hours ago Escape And Evasion 2019 HD Rip XviD AC3-EVO.

10 hours ago Escape And Evasion 2019 HD Rip XviD AC3-EVO.

2 weeks ago Young Sheldon S03E03 iNTERNAL 720p WEB H264-AMRAP.

Mechanic Resurrection (2016). 2 weeks ago Young Sheldon S03E03 iNTERNAL 720p WEB H264-AMRAP.

Скачать с помощью Mediaget.

A daredevil designs and operates his own theme park with his friends. Скачать с помощью Mediaget. com/Action Point 2018 720p H264 ita eng sub ita eng-MIRCrew.

Redline .720p.H264.ita.jpn.Ac3-5.1.sub.ita.eng-MIRCrew

NO FOUND ONLY ORIGINAL RELEASE
My release is always in double track audio italian and Original audio
for select it use VLC or dvd player home
not use wmp
ENGLISH SUBTITLE INSIDE
Redline
Quality MIRCrew on HD 720p da 1,8 gb




Titolo originale レドライン
Lingua originale Giapponese
Paese di produzione Giappone
Anno 2009
Durata 101 min[1]
Rapporto 1.85:1[2]
Genere animazione, azione, fantascienza
Regia Takeshi Koike
Soggetto Katsuhito Ishii
Sceneggiatura Katsuhito Ishii, Yōji Enokido, Yoshiki Sakurai

Doppiatori italiani
Gianluca Crisafi: JP
Perla Liberatori: Sonoshee McLaren
Giovanni Petrucci: Mogura Oyaji
Pierluigi Astore: Presidente Roboworld, Minerva Hanness
Stefano Billi: Colonnello Volton
Mimmo Strati: Machine Head Tetsujin
Toni Orlandi: Inuki
Alberto Bognanni: Titan
Ilaria Giorgino: Boiboi
Stefano Santerini: Gori-Rider
Luca Graziani: Lynchman
Vladimiro Conti: frisbee

Redline è il nome della gara automobilistica illegale più grande dell'universo che si svolge una volta ogni cinque anni in un luogo dello spazio che è rivelato poco prima della partenza. L'unico modo per qualificarsi è di essere tra i primi della precedente gara: la Yellowline.

A story about the most popular racing event in the galaxy, the Redline, and the various racers who compete in it.






General
Complete name : Redline .720p.ita.jpn.Ac3 5.1.sub.ita-MIRCrewRedline .720p.ita.jpn.Ac3 5.1.sub.ita-MIRCrew.mkv
Format : Matroska
Format version : Version 4 / Version 2
File size : 1.82 GiB
Duration : 1h 42mn
Overall bit rate : 2 545 Kbps
Encoded date : UTC 2019-09-12 22:28:12
Writing application : HandBrake 1.2.2 2019022300
Writing library : Lavf58.20.100
Video
ID : 1
Format : AVC
Format/Info : Advanced Video Codec
Format profile : [email protected]
Format settings, CABAC : Yes
Format settings, ReFrames : 4 frames
Codec ID : V_MPEG4/ISO/AVC
Duration : 1h 42mn
Bit rate : 1 900 Kbps
Width : 1 280 pixels
Height : 720 pixels
Display aspect ratio : 16:9
Frame rate : 23.976 fps
Color space : YUV
Chroma subsampling : 4:2:0
Bit depth : 8 bits
Scan type : Progressive
Bits/(Pixel*Frame) : 0.086
Stream size : 1.32 GiB (73%)
Writing library : x264 core 157 r2935 545de2f
Encoding settings : cabac=1 / ref=2 / deblock=1:0:0 / analyse=0x1:0x111 / me=hex / subme=6 / psy=1 / psy_rd=1.00:0.00 / mixed_ref=1 / me_range=16 / chroma_me=1 / trellis=1 / 8x8dct=0 / cqm=0 / deadzone=21,11 / fast_pskip=1 / chroma_qp_offset=-2 / threads=6 / lookahead_threads=1 / sliced_threads=0 / nr=0 / decimate=1 / interlaced=0 / bluray_compat=0 / constrained_intra=0 / bframes=3 / b_pyramid=2 / b_adapt=1 / b_bias=0 / direct=1 / weightb=1 / open_gop=0 / weightp=1 / keyint=240 / keyint_min=24 / scenecut=40 / intra_refresh=0 / rc_lookahead=30 / rc=2pass / mbtree=1 / bitrate=1900 / ratetol=1.0 / qcomp=0.60 / qpmin=0 / qpmax=69 / qpstep=4 / cplxblur=20.0 / qblur=0.5 / vbv_maxrate=50000 / vbv_bufsize=62500 / nal_hrd=none / filler=0 / ip_ratio=1.40 / aq=1:1.00
Default : Yes
Forced : No
DURATION : 01:42:09.629000000
Color primaries : BT.709-5, BT.1361, IEC 61966-2-4, SMPTE RP177
Transfer characteristics : BT.709-5, BT.1361
Matrix coefficients : BT.709-5, BT.1361, IEC 61966-2-4 709, SMPTE RP177
Audio #1
ID : 2
Format : AC-3
Format/Info : Audio Coding 3
Mode extension : CM (complete main)
Codec ID : A_AC3
Duration : 1h 42mn
Bit rate mode : Constant
Bit rate : 448 Kbps
Channel(s) : 6 channels
Channel positions : Front: L C R, Side: L R, LFE
Sampling rate : 48.0 KHz
Bit depth : 16 bits
Compression mode : Lossy
Delay relative to video : -5ms
Stream size : 327 MiB (18%)
Title : Surround
Language : Italian
Default : Yes
Forced : No
DURATION : 01:42:10.016000000
Audio #2
ID : 3
Format : AC-3
Format/Info : Audio Coding 3
Mode extension : CM (complete main)
Codec ID : A_AC3
Duration : 1h 42mn
Bit rate mode : Constant
Bit rate : 192 Kbps
Channel(s) : 2 channels
Channel positions : Front: L R
Sampling rate : 48.0 KHz
Bit depth : 16 bits
Compression mode : Lossy
Delay relative to video : -5ms
Stream size : 140 MiB (8%)
Title : Stereo
Language : Japanese
Default : No
Forced : No
DURATION : 01:42:10.112000000
Menu
00:00:00.000 : :00:00:00.000
00:12:21.449 : :00:12:21.407
00:22:10.496 : :00:22:10.329
00:33:27.380 : :00:33:27.255
00:43:44.122 : :00:43:43.955
00:53:10.979 : :00:53:10.896
01:03:45.905 : :01:03:45.739
01:13:08.759 : :01:13:08.551
01:26:01.406 : :01:26:01.323
01:38:03.920 : :01:38:03.836

Images:
https://extraimage.net/images/2019/06/06/d7f9af045ca1bf30b950bfb84a54d9f2.png|https://extraimage.net/images/2019/11/01/d900ccbbccf34886c1ea54821854320b.png|https://www.officinafreddi.it/images/icone/youtube_logo.png|https://www.userlogos.org/files/logos/Sucka/imdb_new.png|http://i.imgur.com/fGu1rKv.png|http://i.imgur.com/W7kBqiE.png|http://i.imgur.com/bFK3ggF.png|http://i.imgur.com/48xHWWH.png|http://i.imgur.com/K8bfNTy.png|https://extraimage.net/images/2019/11/01/ebd702843e67c91348e1aef9d24c0583.png|https://extraimage.net/images/2019/11/01/f220fd0df70df859c7336a32364ba80e.png|https://extraimage.net/images/2019/11/01/4ee0611f2bba4804f863b432509715d7.png|https://extraimage.net/images/2019/11/01/6d41845ecd8a6664e1c537c5173e44b3.png|http://i.imgur.com/aVrMohH.png

Related at Redline 720p H264 ita jpn Ac3-5 1 sub ita eng-MIRCrew:
© 2019 www.gphi.it | Contacts | DMCA | Privacy Policy