» » The Ancient Magus' Bride Episode 01 1080p Dual Audio
Language: English
Size: 757.5 MB
Rating: 4.8
Category: Dual Audio
Votes: 785
The Ancient Magus' Bride Episode 01 1080p Dual Audio
Files:
The Ancient Magus' Bride [1080p] (Dual Audio)
  • The Ancient Magus' Bride Episode 1 - April showers bring May flowers[1080p].mkv (757.3 MB)
  • fcd25c135faf173a4d8a67a82b3400b71507240910_full.jpg (225.8 KB)


Episode 01 - April Showers Bring May Flowers. mkv (39. MiB) mkv (36. MiB) mkv (46. MiB) mkv (43. MiB).

Episode 01 - April Showers Bring May Flowers. Episode 05 - Love Conquers Al. .mkv (43. MiB) mkv (42. MiB) mkv (38. Episode 08 - Let Sleeping Dogs Li.

The Ancient Magus Bride - 01 - April showers bring May flowers. mkv (20. MiB) mkv (24. MiB) mkv (19. MiB) mkv (21. The Ancient Magus Bride - 05 - Love conquers al.mkv (19. MiB) mkv (20. MiB) mkv (17.

Ancient Magus Bride 1-24 OVA 1-3 . Ancient Magus Bride 01 (BD H265 12Bit TrueHD Dual Audio).

Ancient Magus Bride 1-24 OVA 1-3 (BD H265 12Bit 1080p TrueHD Dual Audio). Category: Anime - English-translated.

0 ('Be Ur Friend') 64-bitWriting library : libebml v.

Update (01-July): In the coming month, we are looking to raise some funds for upgrading the server, which is long overdue, via our long running seedbox service sdbx. The Ancient Magus' Bride - 01 (WEB 720p Hi10 AAC) +2. Main. 2. 76 fpsAudioFormat mkv.

Shadon makes a guest appearance on the Anime Is Lit podcast to discuss the anime Ancient Magus Bride.

captions off, selected. Monster Strike the Animation Episode 59 English Subbed. Boku no Hero Academia Season 4 Episode 8 English Subbed. Dr. Stone Episode 21 English Dubbed.

Thanks for downloading, Enjoy your Anime (o˘◡˘o)

General
Format : Matroska
Format version : Version 4 / Version 2
File size : 757 MiB
Duration : 24 min 10 s
Overall bit rate : 4 381 kb/s
Movie name : The Ancient Magus' Bride Episode 1 - April showers bring May flowers
Encoded date : UTC 2017-10-31 17:05:09
Writing application : mkvmerge v17.0.0 ('Be Ur Friend') 64-bit
Writing library : libebml v1.3.5 + libmatroska v1.4.8
Video
ID : 1
Format : AVC
Format/Info : Advanced Video Codec
Format profile : [email protected]
Format settings : CABAC / 4 Ref Frames
Format settings, CABAC : Yes
Format settings, RefFrames : 4 frames
Codec ID : V_MPEG4/ISO/AVC
Duration : 24 min 9 s
Bit rate : 3 931 kb/s
Width : 1 920 pixels
Height : 1 080 pixels
Display aspect ratio : 16:9
Frame rate mode : Constant
Frame rate : 23.976 (24000/1001) FPS
Color space : YUV
Chroma subsampling : 4:2:0
Bit depth : 8 bits
Scan type : Progressive
Bits/(Pixel*Frame) : 0.079
Stream size : 679 MiB (90%)
Writing library : x264 core 142
Encoding settings : cabac=1 / ref=4 / deblock=1:1:1 / analyse=0x3:0x113 / me=umh / subme=8 / psy=1 / psy_rd=0.40:0.00 / mixed_ref=1 / me_range=16 / chroma_me=1 / trellis=1 / 8x8dct=1 / cqm=0 / deadzone=21,11 / fast_pskip=1 / chroma_qp_offset=-2 / threads=12 / lookahead_threads=2 / sliced_threads=0 / nr=0 / decimate=1 / interlaced=0 / bluray_compat=0 / constrained_intra=0 / bframes=3 / b_pyramid=2 / b_adapt=2 / b_bias=0 / direct=3 / weightb=1 / open_gop=0 / weightp=2 / keyint=48 / keyint_min=24 / scenecut=40 / intra_refresh=0 / rc_lookahead=48 / rc=crf / mbtree=1 / crf=15.0 / qcomp=0.60 / qpmin=0 / qpmax=69 / qpstep=4 / vbv_maxrate=8000 / vbv_bufsize=12000 / crf_max=0.0 / nal_hrd=none / filler=0 / ip_ratio=1.40 / aq=1:0.60
Language : Japanese
Default : Yes
Forced : No
Audio #1
ID : 2
Format : AAC
Format/Info : Advanced Audio Codec
Format profile : LC
Codec ID : A_AAC-2
Duration : 24 min 10 s
Bit rate : 128 kb/s
Channel(s) : 2 channels
Channel positions : Front: L R
Sampling rate : 44.1 kHz
Frame rate : 43.066 FPS (1024 SPF)
Compression mode : Lossy
Delay relative to video : -83 ms
Stream size : 22.1 MiB (3%)
Title : Japanese
Language : Japanese
Default : No
Forced : No
Audio #2
ID : 11
Format : AAC
Format/Info : Advanced Audio Codec
Format profile : LC
Codec ID : A_AAC-2
Duration : 24 min 9 s
Bit rate : 317 kb/s
Channel(s) : 2 channels
Channel positions : Front: L R
Sampling rate : 48.0 kHz
Frame rate : 46.875 FPS (1024 SPF)
Compression mode : Lossy
Delay relative to video : -83 ms
Stream size : 54.9 MiB (7%)
Title : English
Language : English
Default : Yes
Forced : No
Text #1
ID : 3
Format : ASS
Codec ID : S_TEXT/ASS
Codec ID/Info : Advanced Sub Station Alpha
Duration : 22 min 39 s
Bit rate : 108 b/s
Count of elements : 289
Compression mode : Lossless
Stream size : 18.0 KiB (0%)
Title : [English (US)]
Language : English
Default : Yes
Forced : No
Text #2
ID : 4
Format : ASS
Codec ID : S_TEXT/ASS
Codec ID/Info : Advanced Sub Station Alpha
Duration : 23 min 57 s
Bit rate : 108 b/s
Count of elements : 284
Compression mode : Lossless
Stream size : 19.1 KiB (0%)
Title : [Espanol]
Language : Spanish
Default : No
Forced : No
Text #3
ID : 5
Format : ASS
Codec ID : S_TEXT/ASS
Codec ID/Info : Advanced Sub Station Alpha
Duration : 23 min 57 s
Bit rate : 109 b/s
Count of elements : 288
Compression mode : Lossless
Stream size : 19.3 KiB (0%)
Title : [Espanol (Espana)]
Language : Spanish
Default : No
Forced : No
Text #4
ID : 6
Format : ASS
Codec ID : S_TEXT/ASS
Codec ID/Info : Advanced Sub Station Alpha
Duration : 22 min 34 s
Bit rate : 97 b/s
Count of elements : 249
Compression mode : Lossless
Stream size : 16.1 KiB (0%)
Title : [Francais (France)]
Language : French
Default : No
Forced : No
Text #5
ID : 7
Format : ASS
Codec ID : S_TEXT/ASS
Codec ID/Info : Advanced Sub Station Alpha
Duration : 22 min 39 s
Bit rate : 109 b/s
Count of elements : 289
Compression mode : Lossless
Stream size : 18.2 KiB (0%)
Title : [Portugues (Brasil)]
Language : Portuguese
Default : No
Forced : No
Text #6
ID : 8
Format : ASS
Codec ID : S_TEXT/ASS
Codec ID/Info : Advanced Sub Station Alpha
Duration : 22 min 39 s
Bit rate : 131 b/s
Count of elements : 288
Compression mode : Lossless
Stream size : 21.8 KiB (0%)
Title : [Arabic]
Language : Arabic
Default : No
Forced : No
Text #7
ID : 9
Format : ASS
Codec ID : S_TEXT/ASS
Codec ID/Info : Advanced Sub Station Alpha
Duration : 22 min 39 s
Bit rate : 124 b/s
Count of elements : 294
Compression mode : Lossless
Stream size : 20.6 KiB (0%)
Title : [Italiano]
Language : Italian
Default : No
Forced : No
Text #8
ID : 10
Format : ASS
Codec ID : S_TEXT/ASS
Codec ID/Info : Advanced Sub Station Alpha
Duration : 22 min 39 s
Bit rate : 111 b/s
Count of elements : 293
Compression mode : Lossless
Stream size : 18.5 KiB (0%)
Title : [Deutsch]
Language : German
Default : No
Forced : No
Simulcast on Saturdays 1:30pm EDT
SimulDub on Mondays 4:00pm ET

Images:

Related at The Ancient Magus' Bride Episode 01 :
© 2019 www.gphi.it | Contacts | DMCA | Privacy Policy