» » Pokemon - Jirachi - Wish Maker 1080p BDRip x265 AC3 5 1 - Goki 2003
Language: English
Size: 7.0 GB
Rating: 4.9
Category: Dual Audio
Votes: 543
Pokemon - Jirachi - Wish Maker 1080p BDRip x265 AC3 5 1 - Goki 2003
Files:
Pokemon - Jirachi - Wish Maker (2003) 1080p BDRip x265 AC3 5.1 - Goki
  • Pokemon - Jirachi - Wish Maker (2003) 1080p BDRip x265 AC3 5.1 - Goki.mkv (7.0 GB)
  • Pokemon - Jirachi - Wish Maker (2003) 1080p BDRip x265 AC3 5.1 - Goki.nfo (5.7 KB)
  • Pokemon - Jirachi - Wish Maker (2003) 1080p BDRip x265 AC3 5.1 - Goki-clearlogo.png (216.7 KB)
  • Pokemon - Jirachi - Wish Maker (2003) 1080p BDRip x265 AC3 5.1 - Goki-fanart.jpg (175.7 KB)
  • Pokemon - Jirachi - Wish Maker (2003) 1080p BDRip x265 AC3 5.1 - Goki-logo.png (216.7 KB)
  • Pokemon - Jirachi - Wish Maker (2003) 1080p BDRip x265 AC3 5.1 - Goki-poster.jpg (144.7 KB)


a list of 23 titles created 4 months ago.

a list of 23 titles created 4 months ago. Video Game Movies, Ranked.

Come and download pokemon jirachi absolutely for free. Pokemon - Jirachi - Wish Maker (2003) 1080p BDRip x265 AC3 5 1 - Goki Posted by Goki in Anime Dual Audio. 2. +Pokemon 6 Jirachi - Wish Maker (2004)(NL)(1337X) TBS Posted by TinkerBell in Movies DVD. GB. TinkerBell. 0. 1. Pokemon Jirachi Wish Maker (2003) x264 720p HDTV {Dual Audio} Hindi DD 2 0 + English 2 0 Exclusive By DREDD Posted by DREDD in Movies Dubs/Dual Audio.

Pokemon - Jirachi Wishmaker HD 1080p Online Free. Watch Pokemon - Jirachi Wishmaker. watch titans season 2 2019, watch spider man far from home 2019, watch crawl 2019, watch fast & furious presents hobbs & shaw 2019, watch it chapter two 2019, watch toy story 4 2019, watch x men dark phoenix 2019, watch aladdin 2019, watch game of thrones season 8 2019, watch avengers endgame 2019, watch rambo last blood 2019, watch power season 6 2019

Stream anime episodes online for free, Watch Pokemon The Movie 6: Jirachi Wish Maker Movie English version online and free episodes.

Stream anime episodes online for free, Watch Pokemon The Movie 6: Jirachi Wish Maker Movie English version online and free episodes. Anime Episode guide, Chapter Pokemon The Movie 6: Jirachi Wish Maker Movie English dubbed. The story revolves around the Millennium Comet, which appears in the night sky for seven days once every thousand years. It is, at the same time, when the legendary Pokémon Jirachi awakens from a long slumber to absorb the comet's energy. This energy, in turn, is released into the Earth itself, making an area known as Forina grow.

Pokémon: Jirachi Wish Maker. Jul. 19, 2003Japan, United States81 Mi. ot Rated. Action Adventure Animation Family.

Pokemon Jirachi Wish Maker 2003. Genres: Views: 0 views.

Action, adventure, animation. Satoshi, Haruka, Takeshi, and Masato come upon the festival of the Wishing Star of Seven Nights. During their enjoyment, the legendary Pokemon–Jirachi, decends from the heavens and befriends Masato. Jirachi, with the power to grant any wish, is sought after by many people wanting to claim its power. One man seeks to use its legendary power to revive an ancient pokemon known as Groudon, unaware of the dangers hidden within Jirachi’s powers.

Pokémon: Jirachi Wish Maker is a 2003 anime film directed by Kunihiko Yuyama. It is the sixth film in the Pokémon series, and is the first one featuring the characters from Advanced Generation. It was accompanied by the short "Gotta Dance" (おどるポケモンひみつ基地 Odoru Pokemon Himitsu Kichi, Secret Base of the Dancing Pokémon). It was released in theaters in Japan on July 19, 2003. The English dub was produced by 4Kids Entertainment and distributed by Miramax Films.

Pokémon: Jirachi Wish Maker, originally released in Japan as Pocket Monsters Advanced Generation the Movie: The .

Pokémon: Jirachi Wish Maker, originally released in Japan as Pocket Monsters Advanced Generation the Movie: The Wishing Star of Seven Nights: Jirachi (Japanese: 劇場版ポケットモンスターアドバンスジェネレーション 七夜の願い星 ジラーチ Hepburn: Gekijōban Poketto Monsutā Adobansu Jenerēshon Nanayo no. Negaiboshi Jirāchi?), is the sixth film associated with the Pokémon animated series, and is the first one featuring the characters from Advanced Generation. It was accompanied by the short "Gotta Dance" (おどるポケモンひみつ基地 Odoru pokemon himitsu kichi?, Pokemon dance secret base)


Pokemon - Jirachi - Wish Maker IMDB

Screenshots


Media Information

Unique ID : 236410476380447719417849105033491903957 (0xB1DB00666B5BD350B0A4478EE68BF5D5)
Complete name : Pokemon - Jirachi - Wish Maker 1080p BDRip x265 AC3 5.1 - Goki.mkv
Format : Matroska
Format version : Version 4
File size : 6.99 GiB
Duration : 1 h 21 min
Overall bit rate : 12.3 Mb/s
Movie name : Pokemon - Jirachi - Wish Maker 1080p BDRip x265 AC3 5.1 - Goki
Encoded date : UTC 2019-08-30 08:02:33
Writing application : mkvmerge v28.2.0 ('The Awakening') 64-bit
Writing library : libebml v1.3.6 + libmatroska v1.4.9
Video
ID : 1
Format : HEVC
Format/Info : High Efficiency Video Coding
Format profile : Main [email protected]@Main
Codec ID : V_MPEGH/ISO/HEVC
Duration : 1 h 21 min
Bit rate : 11.2 Mb/s
Width : 1 920 pixels
Height : 1 080 pixels
Display aspect ratio : 16:9
Frame rate mode : Constant
Frame rate : 23.976 (24000/1001) FPS
Color space : YUV
Chroma subsampling : 4:2:0
Bit depth : 10 bits
Bits/(Pixel*Frame) : 0.225
Stream size : 6.37 GiB (91%)
Writing library : x265 2.9+8-27d8424c799d:[Windows][MSVC 1915][64 bit] 10bit
Encoding settings : cpuid=1111039 / frame-threads=2 / numa-pools=4 / wpp / no-pmode / no-pme / no-psnr / no-ssim / log-level=2 / input-csp=1 / input-res=1920x1080 / interlace=0 / total-frames=0 / level-idc=0 / high-tier=1 / uhd-bd=0 / ref=4 / no-allow-non-conformance / no-repeat-headers / annexb / no-aud / no-hrd / info / hash=0 / no-temporal-layers / open-gop / min-keyint=23 / keyint=250 / gop-lookahead=0 / bframes=8 / b-adapt=2 / b-pyramid / bframe-bias=0 / rc-lookahead=100 / lookahead-slices=4 / scenecut=40 / radl=0 / no-intra-refresh / ctu=64 / min-cu-size=8 / no-rect / no-amp / max-tu-size=32 / tu-inter-depth=2 / tu-intra-depth=2 / limit-tu=4 / rdoq-level=2 / dynamic-rd=0.00 / no-ssim-rd / signhide / no-tskip / nr-intra=0 / nr-inter=0 / no-constrained-intra / no-strong-intra-smoothing / max-merge=3 / limit-refs=2 / limit-modes / me=3 / subme=5 / merange=57 / temporal-mvp / weightp / weightb / no-analyze-src-pics / deblock=0:0 / sao / no-sao-non-deblock / rd=6 / no-early-skip / rskip / no-fast-intra / no-tskip-fast / no-cu-lossless / b-intra / no-splitrd-skip / rdpenalty=0 / psy-rd=1.30 / psy-rdoq=2.00 / no-rd-refine / no-lossless / cbqpoffs=0 / crqpoffs=0 / rc=crf / crf=18.0 / qcomp=0.60 / qpstep=4 / stats-write=0 / stats-read=0 / ipratio=1.40 / pbratio=1.30 / aq-mode=2 / aq-strength=1.10 / cutree / zone-count=0 / no-strict-cbr / qg-size=32 / no-rc-grain / qpmax=69 / qpmin=0 / no-const-vbv / sar=1 / overscan=0 / videoformat=5 / range=0 / colorprim=2 / transfer=2 / colormatrix=2 / chromaloc=0 / display-window=0 / max-cll=0,0 / min-luma=0 / max-luma=1023 / log2-max-poc-lsb=8 / vui-timing-info / vui-hrd-info / slices=1 / no-opt-qp-pps / no-opt-ref-list-length-pps / no-multi-pass-opt-rps / scenecut-bias=0.05 / no-opt-cu-delta-qp / no-aq-motion / no-hdr / no-hdr-opt / no-dhdr10-opt / no-idr-recovery-sei / analysis-reuse-level=5 / scale-factor=0 / refine-intra=0 / refine-inter=0 / refine-mv=0 / no-limit-sao / ctu-info=0 / no-lowpass-dct / refine-mv-type=0 / copy-pic=1 / max-ausize-factor=1.0 / no-dynamic-refine / no-single-sei
Language : English
Default : Yes
Forced : No
Audio #1
ID : 2
Format : AC-3
Format/Info : Audio Coding 3
Commercial name : Dolby Digital
Codec ID : A_AC3
Duration : 1 h 21 min
Bit rate mode : Constant
Bit rate : 448 kb/s
Channel(s) : 6 channels
Channel layout : L R C LFE Ls Rs
Sampling rate : 48.0 kHz
Frame rate : 31.250 FPS (1536 SPF)
Bit depth : 16 bits
Compression mode : Lossy
Delay relative to video : 1 s 700 ms
Stream size : 260 MiB (4%)
Title : Dolby Digital 5.1
Language : English
Service kind : Complete Main
Default : Yes
Forced : No
Audio #2
ID : 3
Format : AC-3
Format/Info : Audio Coding 3
Commercial name : Dolby Digital
Codec ID : A_AC3
Duration : 1 h 21 min
Bit rate mode : Constant
Bit rate : 640 kb/s
Channel(s) : 6 channels
Channel layout : L R C LFE Ls Rs
Sampling rate : 48.0 kHz
Frame rate : 31.250 FPS (1536 SPF)
Bit depth : 16 bits
Compression mode : Lossy
Stream size : 372 MiB (5%)
Title : Dolby Digital 5.1
Language : Japanese
Service kind : Complete Main
Default : No
Forced : No
Text #1
ID : 4
Format : VobSub
Codec ID : S_VOBSUB
Codec ID/Info : Picture based subtitle format used on DVDs
Duration : 1 h 20 min
Bit rate : 3 069 b/s
Count of elements : 783
Stream size : 1.77 MiB (0%)
Language : English
Default : No
Forced : No
Text #2
ID : 5
Format : VobSub
Codec ID : S_VOBSUB
Codec ID/Info : Picture based subtitle format used on DVDs
Duration : 1 h 20 min
Bit rate : 5 050 b/s
Count of elements : 1435
Stream size : 2.93 MiB (0%)
Language : English
Default : No
Forced : No
Menu
00:00:00.000 : :00:00:00.000
00:03:22.202 : :00:03:22.202
00:08:12.784 : :00:08:12.784
00:15:29.971 : :00:15:29.971
00:22:42.111 : :00:22:42.111
00:26:02.311 : :00:26:02.311
00:28:12.357 : :00:28:12.357
00:31:47.072 : :00:31:47.072
00:38:35.313 : :00:38:35.313
00:40:44.233 : :00:40:44.233
00:45:57.213 : :00:45:57.213
00:51:16.615 : :00:51:16.615
00:54:03.073 : :00:54:03.073
00:57:21.313 : :00:57:21.313
01:02:29.412 : :01:02:29.412
01:05:12.826 : :01:05:12.826
01:10:44.574 : :01:10:44.574
01:15:44.874 : :01:15:44.874

Source Information

Unique ID : 215438273556996634356030322098263955278 (0xA213E6F7F573386B9DD408D04B2E174E)
Complete name : Pokémon Movie 06 Jirachi Wish Maker 2003 1080p Bluray Remux AVC TrueHD AC3 - BluDragon.mkv
Format : Matroska
Format version : Version 4
File size : 19.5 GiB
Duration : 1 h 21 min
Overall bit rate mode : Variable
Overall bit rate : 34.2 Mb/s
Encoded date : UTC 2010-02-22 21:41:31
Writing application : mkvmerge v5.9.0 ('On The Loose') built on Dec 9 2012 15:37:01
Writing library : libebml v1.3.0 + libmatroska v1.4.0
Video
ID : 1
Format : AVC
Format/Info : Advanced Video Codec
Format profile : [email protected]
Format settings : CABAC / 2 Ref Frames
Format settings, CABAC : Yes
Format settings, RefFrames : 2 frames
Muxing mode : Container [email protected]
Codec ID : V_MPEG4/ISO/AVC
Duration : 1 h 21 min
Bit rate mode : Variable
Width : 1 920 pixels
Height : 1 080 pixels
Display aspect ratio : 16:9
Frame rate mode : Constant
Frame rate : 23.976 (24000/1001) FPS
Color space : YUV
Chroma subsampling : 4:2:0
Bit depth : 8 bits
Scan type : Progressive
Title : Pokémon Movie 06: Jirachi Wish Maker
Language : English
Default : No
Forced : No
Audio #1
ID : 2
Format : AC-3
Format/Info : Audio Coding 3
Commercial name : Dolby Digital
Codec ID : A_AC3
Duration : 1 h 21 min
Bit rate mode : Constant
Bit rate : 448 kb/s
Channel(s) : 6 channels
Channel layout : L R C LFE Ls Rs
Sampling rate : 48.0 kHz
Frame rate : 31.250 FPS (1536 SPF)
Bit depth : 16 bits
Compression mode : Lossy
Delay relative to video : 1 s 700 ms
Stream size : 261 MiB (1%)
Title : Dolby Digital 5.1
Language : English
Service kind : Complete Main
Default : Yes
Forced : No
Audio #2
ID : 3
Format : MLP FBA
Format/Info : Meridian Lossless Packing FBA
Commercial name : Dolby TrueHD
Codec ID : A_TRUEHD
Duration : 1 h 21 min
Bit rate mode : Variable
Maximum bit rate : 2 967 kb/s
Channel(s) : 6 channels
Channel layout : L R C LFE Ls Rs
Sampling rate : 48.0 kHz
Frame rate : 1 200.000 FPS (40 SPF)
Compression mode : Lossless
Title : TrueHD 5.1
Language : Japanese
Default : No
Forced : No
Text #1
ID : 4
Format : VobSub
Muxing mode : zlib
Codec ID : S_VOBSUB
Codec ID/Info : Picture based subtitle format used on DVDs
Title : VobSub: Dialogue [PocketMonsters]
Language : English
Default : No
Forced : No
Text #2
ID : 5
Format : VobSub
Muxing mode : zlib
Codec ID : S_VOBSUB
Codec ID/Info : Picture based subtitle format used on DVDs
Title : VobSub: Dialogue
Language : English
Default : No
Forced : No
Menu
00:00:00.000 : en:00:00:00.000
00:03:22.202 : en:00:03:22.202
00:08:12.784 : en:00:08:12.784
00:15:29.971 : en:00:15:29.971
00:22:42.111 : en:00:22:42.111
00:26:02.311 : en:00:26:02.311
00:28:12.357 : en:00:28:12.357
00:31:47.072 : en:00:31:47.072
00:38:35.313 : en:00:38:35.313
00:40:44.233 : en:00:40:44.233
00:45:57.213 : en:00:45:57.213
00:51:16.615 : en:00:51:16.615
00:54:03.073 : en:00:54:03.073
00:57:21.313 : en:00:57:21.313
01:02:29.412 : en:01:02:29.412
01:05:12.826 : en:01:05:12.826
01:10:44.574 : en:01:10:44.574
01:15:44.874 : en:01:15:44.874

.........................................................................................................................................

Images:
https://i.postimg.cc/rFvtHwWJ/Goki2.png|https://i.postimg.cc/s253bJbh/pokemonjwms1.png|https://i.postimg.cc/13wxz3Mx/pokemonjwms2.png|https://i.postimg.cc/654gHpk7/pokemonjwms3.png|https://i.postimg.cc/8zSGMv7k/pokemonjwms4.png

Related at Pokemon - Jirachi - Wish Maker 1080p BDRip x265 AC3 5 1 - Goki:
© 2019 www.gphi.it | Contacts | DMCA | Privacy Policy