» » Penguin Highway 2018 1080p BDRip x265 10bit EAC3 5.1 - Goki
Language: English
Size: 3.4 GB
Rating: 4.7
Category: Dual Audio
Votes: 016
Penguin Highway 2018 1080p BDRip x265 10bit EAC3 5.1 - Goki
Files:
Penguin Highway (2018) (1080p BDRip x265 10bit EAC3 5.1 - Goki)
  • Penguin Highway (2018) (1080p BDRip x265 10bit EAC3 5.1 - Goki).mkv (3.4 GB)
  • Penguin Highway (2018) (1080p BDRip x265 10bit EAC3 5.1 - Goki).nfo (5.0 KB)
  • Penguin Highway (2018) (1080p BDRip x265 10bit EAC3 5.1 - Goki)-banner.jpg (123.3 KB)
  • Penguin Highway (2018) (1080p BDRip x265 10bit EAC3 5.1 - Goki)-clearlogo.png (55.1 KB)
  • Penguin Highway (2018) (1080p BDRip x265 10bit EAC3 5.1 - Goki)-fanart.jpg (367.9 KB)
  • Penguin Highway (2018) (1080p BDRip x265 10bit EAC3 5.1 - Goki)-keyart.jpg (880.6 KB)
  • Penguin Highway (2018) (1080p BDRip x265 10bit EAC3 5.1 - Goki)-logo.png (55.1 KB)
  • Penguin Highway (2018) (1080p BDRip x265 10bit EAC3 5.1 - Goki)-poster.jpg (27.6 KB)
  • Penguin Highway (2018) (1080p BDRip x265 10bit EAC3 5.1 - Goki)-thumb.jpg (428.7 KB)


0 ('Is That Jazz?') 64-bitWriting library : libebml v.

0 ('Is That Jazz?') 64-bitWriting library : libebml v.

To make matters worse, it’s soon discovered there are other similarly altered animals.

Bumblebee p 10bit HC HDRip 2CH x265 HEVC - ENX265.

Unique ID : 5238634241618895068 (4F7FEA59B460DC) Complete name : Bumblebee (2018) 1080p Webrip x265 EAC3 . Goki. Bumblebee p 10bit HC HDRip 2CH x265 HEVC - ENX265.

Dolby TrueHD . ATMOS. Bit Harvest (Lossless). Most TV’s with ARC doesn’t support . format, let alone Dolby ATMOS. Apple TV does not support ATMOS passthrough either. Nvidia Shield and Dune Solo supports those formats.

Распрекрасный принц (2018). 85 min Animation, Adventure, Comedy. Other Lists by xlostincyberx. BluRay 10Bit 1080p DD5 1 H265. See all lists by xlostincyberx .

Six years after the events of "Wreck-It Ralph", Ralph and Vanellope, now friends, discover a wi-fi router in their arcade, leading them into a new adventure.

Writing application : mkvmerge v3. 0 ('Is That Jazz?') 64-bit Writing library : libebml v.

Download Subtitle Download Subtitle (Zip). Supergirl 5x09 - Crisis on Infinite Earths Part One (Español Español.

Chapter 11: The House in the Woods S1, Ep11 Lost in the wilderness Hilda tries to find her way back to Trollberg with the help of the reluctant woodman. Chapter 12: The Nisse S1, Ep12. Chapter 13: The Black Hound S1, Ep13. Download from free file storage.



Penguin Highway IMDB

Screenshots





Media Information

Unique ID                                : 84929406434514735542264303426610896948 (0x3FE4CF07097AF2F4201578719527A034)
Complete name                            : Penguin Highway (1080p BDRip x265 10bit EAC3 5.1 - Goki).mkv
Format                                   : Matroska
Format version                           : Version 4
File size                                : 3.44 GiB
Duration                                 : 1 h 57 min
Overall bit rate                         : 4 193 kb/s
Movie name                               : Penguin Highway (1080p BDRip x265 10bit EAC3 5.1 - Goki).mkv
Encoded date                             : UTC 2019-11-10 20:59:41
Writing application                      : mkvmerge v28.2.0 ('The Awakening') 64-bit
Writing library                          : libebml v1.3.6 + libmatroska v1.4.9
Video
ID                                       : 1
Format                                   : HEVC
Format/Info                              : High Efficiency Video Coding
Format profile                           : Main [email protected]@Main
Codec ID                                 : V_MPEGH/ISO/HEVC
Duration                                 : 1 h 57 min
Bit rate                                 : 2 808 kb/s
Width                                    : 1 920 pixels
Height                                   : 1 080 pixels
Display aspect ratio                     : 16:9
Frame rate mode                          : Constant
Frame rate                               : 23.976 (24000/1001) FPS
Color space                              : YUV
Chroma subsampling                       : 4:2:0
Bit depth                                : 10 bits
Bits/(Pixel*Frame)                       : 0.056
Stream size                              : 2.31 GiB (67%)
Writing library                          : x265 2.9+8-27d8424c799d:[Windows][MSVC 1915][64 bit] 10bit
Encoding settings                        : cpuid=1111039 / frame-threads=2 / numa-pools=6 / wpp / no-pmode / no-pme / no-psnr / no-ssim / log-level=2 / input-csp=1 / input-res=1920x1080 / interlace=0 / total-frames=0 / level-idc=0 / high-tier=1 / uhd-bd=0 / ref=4 / no-allow-non-conformance / no-repeat-headers / annexb / no-aud / no-hrd / info / hash=0 / no-temporal-layers / open-gop / min-keyint=23 / keyint=250 / gop-lookahead=0 / bframes=8 / b-adapt=2 / b-pyramid / bframe-bias=0 / rc-lookahead=100 / lookahead-slices=4 / scenecut=40 / radl=0 / no-intra-refresh / ctu=64 / min-cu-size=8 / no-rect / no-amp / max-tu-size=32 / tu-inter-depth=2 / tu-intra-depth=2 / limit-tu=4 / rdoq-level=2 / dynamic-rd=0.00 / no-ssim-rd / signhide / no-tskip / nr-intra=0 / nr-inter=0 / no-constrained-intra / no-strong-intra-smoothing / max-merge=3 / limit-refs=2 / limit-modes / me=3 / subme=5 / merange=57 / temporal-mvp / weightp / weightb / no-analyze-src-pics / deblock=0:0 / sao / no-sao-non-deblock / rd=6 / no-early-skip / rskip / no-fast-intra / no-tskip-fast / no-cu-lossless / b-intra / no-splitrd-skip / rdpenalty=0 / psy-rd=1.30 / psy-rdoq=2.00 / no-rd-refine / no-lossless / cbqpoffs=0 / crqpoffs=0 / rc=crf / crf=18.0 / qcomp=0.60 / qpstep=4 / stats-write=0 / stats-read=0 / ipratio=1.40 / pbratio=1.30 / aq-mode=2 / aq-strength=1.10 / cutree / zone-count=0 / no-strict-cbr / qg-size=32 / no-rc-grain / qpmax=69 / qpmin=0 / no-const-vbv / sar=1 / overscan=0 / videoformat=5 / range=0 / colorprim=2 / transfer=2 / colormatrix=2 / chromaloc=0 / display-window=0 / max-cll=0,0 / min-luma=0 / max-luma=1023 / log2-max-poc-lsb=8 / vui-timing-info / vui-hrd-info / slices=1 / no-opt-qp-pps / no-opt-ref-list-length-pps / no-multi-pass-opt-rps / scenecut-bias=0.05 / no-opt-cu-delta-qp / no-aq-motion / no-hdr / no-hdr-opt / no-dhdr10-opt / no-idr-recovery-sei / analysis-reuse-level=5 / scale-factor=0 / refine-intra=0 / refine-inter=0 / refine-mv=0 / no-limit-sao / ctu-info=0 / no-lowpass-dct / refine-mv-type=0 / copy-pic=1 / max-ausize-factor=1.0 / no-dynamic-refine / no-single-sei
Language                                 : English
Default                                  : Yes
Forced                                   : No
Audio #1
ID                                       : 2
Format                                   : E-AC-3
Format/Info                              : Enhanced AC-3
Commercial name                          : Dolby Digital Plus
Codec ID                                 : A_EAC3
Duration                                 : 1 h 57 min
Bit rate mode                            : Constant
Bit rate                                 : 448 kb/s
Channel(s)                               : 6 channels
Channel layout                           : L R C LFE Ls Rs
Sampling rate                            : 48.0 kHz
Frame rate                               : 31.250 FPS (1536 SPF)
Compression mode                         : Lossy
Delay relative to video                  : 8 ms
Stream size                              : 376 MiB (11%)
Title                                    : Surround 5.1
Language                                 : English
Service kind                             : Complete Main
Default                                  : Yes
Forced                                   : No
Audio #2
ID                                       : 3
Format                                   : E-AC-3
Format/Info                              : Enhanced AC-3
Commercial name                          : Dolby Digital Plus
Codec ID                                 : A_EAC3
Duration                                 : 1 h 57 min
Bit rate mode                            : Constant
Bit rate                                 : 448 kb/s
Channel(s)                               : 6 channels
Channel layout                           : L R C LFE Ls Rs
Sampling rate                            : 48.0 kHz
Frame rate                               : 31.250 FPS (1536 SPF)
Compression mode                         : Lossy
Delay relative to video                  : 8 ms
Stream size                              : 376 MiB (11%)
Title                                    : Surround 5.1
Language                                 : Japanese
Service kind                             : Complete Main
Default                                  : No
Forced                                   : No
Audio #3
ID                                       : 4
Format                                   : AC-3
Format/Info                              : Audio Coding 3
Commercial name                          : Dolby Digital
Codec ID                                 : A_AC3
Duration                                 : 1 h 57 min
Bit rate mode                            : Constant
Bit rate                                 : 192 kb/s
Channel(s)                               : 2 channels
Channel layout                           : L R
Sampling rate                            : 48.0 kHz
Frame rate                               : 31.250 FPS (1536 SPF)
Compression mode                         : Lossy
Stream size                              : 161 MiB (5%)
Title                                    : Barrier-free/Voice Over Stereo
Language                                 : Japanese
Service kind                             : Complete Main
Default                                  : No
Forced                                   : No
Audio #4
ID                                       : 5
Format                                   : AC-3
Format/Info                              : Audio Coding 3
Commercial name                          : Dolby Digital
Codec ID                                 : A_AC3
Duration                                 : 1 h 57 min
Bit rate mode                            : Constant
Bit rate                                 : 192 kb/s
Channel(s)                               : 2 channels
Channel layout                           : L R
Sampling rate                            : 48.0 kHz
Frame rate                               : 31.250 FPS (1536 SPF)
Compression mode                         : Lossy
Stream size                              : 161 MiB (5%)
Title                                    : Japanese Commentary By Director & Staff
Language                                 : Japanese
Service kind                             : Complete Main
Default                                  : No
Forced                                   : No
Text #1
ID                                       : 6
Format                                   : PGS
Codec ID                                 : S_HDMV/PGS
Codec ID/Info                            : Picture based subtitle format used on BDs/HD-DVDs
Duration                                 : 1 h 56 min
Bit rate                                 : 2 468 b/s
Count of elements                        : 192
Stream size                              : 2.06 MiB (0%)
Title                                    : Signs & Songs
Language                                 : English
Default                                  : Yes
Forced                                   : No
Text #2
ID                                       : 7
Format                                   : PGS
Codec ID                                 : S_HDMV/PGS
Codec ID/Info                            : Picture based subtitle format used on BDs/HD-DVDs
Duration                                 : 1 h 57 min
Bit rate                                 : 59.9 kb/s
Count of elements                        : 4490
Stream size                              : 50.2 MiB (1%)
Language                                 : English
Default                                  : No
Forced                                   : No
Text #3
ID                                       : 8
Format                                   : PGS
Codec ID                                 : S_HDMV/PGS
Codec ID/Info                            : Picture based subtitle format used on BDs/HD-DVDs
Duration                                 : 1 h 57 min
Bit rate                                 : 40.9 kb/s
Count of elements                        : 3880
Stream size                              : 34.3 MiB (1%)
Language                                 : Japanese
Default                                  : No
Forced                                   : No
Menu
00:00:00.000                             : ja:Chapter 01
00:04:46.703                             : ja:Chapter 02
00:15:53.077                             : ja:Chapter 03
00:20:59.508                             : ja:Chapter 04
00:25:51.508                             : ja:Chapter 05
00:42:35.678                             : ja:Chapter 06
00:52:05.539                             : ja:Chapter 07
01:14:19.163                             : ja:Chapter 08
01:27:40.296                             : ja:Chapter 09
01:35:34.437                             : ja:Chapter 10
01:43:51.350                             : ja:Chapter 11
01:50:36.880                             : ja:Chapter 12
01:57:33.713                             : ja:Chapter 13

Source Information

Unique ID                                : 98646273958526507604018462902279184357 (0x4A3694CF8BAFBD1B739518FF80AF9FE5)
Complete name                            : Penguin Highway 2018 Bluray 1080p DTS-HD MA 5.1 AVC Hybrid-REMUX Dual Audio -ZR-.mkv
Format                                   : Matroska
Format version                           : Version 4
File size                                : 37.1 GiB
Duration                                 : 1 h 57 min
Overall bit rate mode                    : Variable
Overall bit rate                         : 45.2 Mb/s
Encoded date                             : UTC 2019-09-30 00:14:57
Writing application                      : mkvmerge v29.0.0 ('Like It Or Not') 32-bit
Writing library                          : libebml v1.3.6 + libmatroska v1.4.9
Video
ID                                       : 1
Format                                   : AVC
Format/Info                              : Advanced Video Codec
Format profile                           : [email protected]
Format settings                          : CABAC / 4 Ref Frames
Format settings, CABAC                   : Yes
Format settings, Reference frames        : 4 frames
Codec ID                                 : V_MPEG4/ISO/AVC
Duration                                 : 1 h 57 min
Bit rate mode                            : Variable
Bit rate                                 : 37.2 Mb/s
Maximum bit rate                         : 39.0 Mb/s
Width                                    : 1 920 pixels
Height                                   : 1 080 pixels
Display aspect ratio                     : 16:9
Frame rate mode                          : Constant
Frame rate                               : 23.976 (24000/1001) FPS
Color space                              : YUV
Chroma subsampling                       : 4:2:0
Bit depth                                : 8 bits
Scan type                                : Progressive
Bits/(Pixel*Frame)                       : 0.748
Stream size                              : 30.5 GiB (82%)
Language                                 : English
Default                                  : No
Forced                                   : No
Audio #1
ID                                       : 2
Format                                   : DTS XLL
Format/Info                              : Digital Theater Systems
Commercial name                          : DTS-HD Master Audio
Codec ID                                 : A_DTS
Duration                                 : 1 h 57 min
Bit rate mode                            : Variable
Bit rate                                 : 3 709 kb/s
Channel(s)                               : 6 channels
Channel layout                           : C L R Ls Rs LFE
Sampling rate                            : 48.0 kHz
Frame rate                               : 93.750 FPS (512 SPF)
Bit depth                                : 24 bits
Compression mode                         : Lossless
Delay relative to video                  : 8 ms
Stream size                              : 3.04 GiB (8%)
Title                                    : Surround 5.1
Language                                 : English
Default                                  : Yes
Forced                                   : No
Audio #2
ID                                       : 3
Format                                   : DTS XLL
Format/Info                              : Digital Theater Systems
Commercial name                          : DTS-HD Master Audio
Codec ID                                 : A_DTS
Duration                                 : 1 h 57 min
Bit rate mode                            : Variable
Bit rate                                 : 3 841 kb/s
Channel(s)                               : 6 channels
Channel layout                           : C L R Ls Rs LFE
Sampling rate                            : 48.0 kHz
Frame rate                               : 93.750 FPS (512 SPF)
Bit depth                                : 24 bits
Compression mode                         : Lossless
Delay relative to video                  : 8 ms
Stream size                              : 3.15 GiB (8%)
Title                                    : Surround 5.1
Language                                 : Japanese
Default                                  : No
Forced                                   : No
Audio #3
ID                                       : 4
Format                                   : AC-3
Format/Info                              : Audio Coding 3
Commercial name                          : Dolby Digital
Codec ID                                 : A_AC3
Duration                                 : 1 h 57 min
Bit rate mode                            : Constant
Bit rate                                 : 192 kb/s
Channel(s)                               : 2 channels
Channel layout                           : L R
Sampling rate                            : 48.0 kHz
Frame rate                               : 31.250 FPS (1536 SPF)
Compression mode                         : Lossy
Stream size                              : 161 MiB (0%)
Title                                    : Barrier-free/Voice Over Stereo
Language                                 : Japanese
Service kind                             : Complete Main
Default                                  : No
Forced                                   : No
Audio #4
ID                                       : 5
Format                                   : AC-3
Format/Info                              : Audio Coding 3
Commercial name                          : Dolby Digital
Codec ID                                 : A_AC3
Duration                                 : 1 h 57 min
Bit rate mode                            : Constant
Bit rate                                 : 192 kb/s
Channel(s)                               : 2 channels
Channel layout                           : L R
Sampling rate                            : 48.0 kHz
Frame rate                               : 31.250 FPS (1536 SPF)
Compression mode                         : Lossy
Stream size                              : 161 MiB (0%)
Title                                    : Japanese Commentary By Director & Staff
Language                                 : Japanese
Service kind                             : Complete Main
Default                                  : No
Forced                                   : No
Text #1
ID                                       : 6
Format                                   : PGS
Muxing mode                              : zlib
Codec ID                                 : S_HDMV/PGS
Codec ID/Info                            : Picture based subtitle format used on BDs/HD-DVDs
Duration                                 : 1 h 56 min
Bit rate                                 : 2 468 b/s
Count of elements                        : 192
Stream size                              : 2.06 MiB (0%)
Title                                    : Signs & Songs
Language                                 : English
Default                                  : Yes
Forced                                   : No
Text #2
ID                                       : 7
Format                                   : PGS
Muxing mode                              : zlib
Codec ID                                 : S_HDMV/PGS
Codec ID/Info                            : Picture based subtitle format used on BDs/HD-DVDs
Duration                                 : 1 h 57 min
Bit rate                                 : 59.9 kb/s
Count of elements                        : 4490
Stream size                              : 50.2 MiB (0%)
Language                                 : English
Default                                  : No
Forced                                   : No
Text #3
ID                                       : 8
Format                                   : PGS
Muxing mode                              : zlib
Codec ID                                 : S_HDMV/PGS
Codec ID/Info                            : Picture based subtitle format used on BDs/HD-DVDs
Duration                                 : 1 h 57 min
Bit rate                                 : 40.9 kb/s
Count of elements                        : 3880
Stream size                              : 34.3 MiB (0%)
Language                                 : Japanese
Default                                  : No
Forced                                   : No
Menu
00:00:00.000                             : ja:Chapter 01
00:04:46.703                             : ja:Chapter 02
00:15:53.077                             : ja:Chapter 03
00:20:59.508                             : ja:Chapter 04
00:25:51.508                             : ja:Chapter 05
00:42:35.678                             : ja:Chapter 06
00:52:05.539                             : ja:Chapter 07
01:14:19.163                             : ja:Chapter 08
01:27:40.296                             : ja:Chapter 09
01:35:34.437                             : ja:Chapter 10
01:43:51.350                             : ja:Chapter 11
01:50:36.880                             : ja:Chapter 12
01:57:33.713                             : ja:Chapter 13

.........................................................................................................................................

Images:
https://extraimage.net/images/2019/11/11/db967b405d0fbf8dd0a10d11b0035b33.png|https://www.madmanfilms.com.au/wp-content/uploads/2018/10/Penguin-Highway-Image-BG-Panel.jpg|https://extraimage.net/images/2019/11/11/91bf7380ed829aeb7b7d5dd2dd22687f.png|https://extraimage.net/images/2019/11/11/928ea3672ff56eb6ccab71bbf5b33175.png|https://extraimage.net/images/2019/11/11/f815a90924fd6e23757d6afe65f6d060.png|https://extraimage.net/images/2019/11/11/3b90ae0a69283cd40a5be9ffcae8f99d.png

Related at Penguin Highway :
© 2019 www.gphi.it | Contacts | DMCA | Privacy Policy