» » Pokemon the Movie Hoopa and the Clash of Ages 1080p BDRip x265 AC3 5 1 Goki 2015
Language: English
Size: 4.6 GB
Rating: 4.9
Category: Dual Audio
Votes: 531
Pokemon the Movie Hoopa and the Clash of Ages 1080p BDRip x265 AC3 5 1 Goki 2015
Files:
Pokemon the Movie Hoopa and the Clash of Ages (2015) 1080p BDRip x265 AC3 5.1 Goki [SEV]
  • Pokemon the Movie Hoopa and the Clash of Ages (2015) 1080p BDRip x265 AC3 5.1 Goki [SEV].mkv (4.6 GB)
  • Pokemon the Movie Hoopa and the Clash of Ages (2015) 1080p BDRip x265 AC3 5.1 Goki [SEV].nfo (6.8 KB)
  • Pokemon the Movie Hoopa and the Clash of Ages (2015) 1080p BDRip x265 AC3 5.1 Goki [SEV]-clearlogo.png (233.6 KB)
  • Pokemon the Movie Hoopa and the Clash of Ages (2015) 1080p BDRip x265 AC3 5.1 Goki [SEV]-fanart.jpg (162.5 KB)
  • Pokemon the Movie Hoopa and the Clash of Ages (2015) 1080p BDRip x265 AC3 5.1 Goki [SEV]-logo.png (233.6 KB)
  • Pokemon the Movie Hoopa and the Clash of Ages (2015) 1080p BDRip x265 AC3 5.1 Goki [SEV]-poster.jpg (179.0 KB)


Pokémon Hoopa, who has the ability to summon things-including people and Pokémon-through its magic ring.

When Ash, Pikachu, and their friends visit a desert city by the sea, they meet the Mythical Pokémon Hoopa, who has the ability to summon things-including people and Pokémon-through its magic ring. Watch Pokémon the Movie: Hoopa and the Clash of Ages (2015) tv-series/movies online for free, Free movie pokemon the movie hoopa and the clash of ages 2015 quot pokemon the movie xy ring no chomajin hoopa with English Subtitles, Watch Pokémon the Movie: Hoopa and the Clash of Ages (2015) full movie, Watch Pokémon the Movie: Hoopa and the Clash of.

Pokémon Hoopa, who has the ability to summon things-including people and Pokémon-through its magic ring. Can Ash help his new friend overcome the darkness withi. r will a dangerous secret erupt into a clash of legends?

When Ash, Pikachu, and their friends visit a desert city by the sea, they meet the Mythical Pokémon Hoopa, who has the ability to summon things-including people and Pokémon-through its magic ring. After a scary incident, they learn a story about a brave hero who stopped the rampage of a terrifying Pokémon long ago. Now, the threat that has been bottled up for years is in danger of breaking loose again! Can Ash help his new friend overcome the darkness withi. r will a dangerous secret erupt into a clash of legends? 720P HDTV X254 AC3 . VERSION.

Please OFF ADBLOCK to watch movies. Kissmovies only works on domain kissmovies. Pokémon the Movie: Hoopa and the Clash of Ages. When Ash, Pikachu, and their friends visit a desert city by the sea, they meet the Mythical Pokémon Hoopa, who has the ability to summon things-including people and Pokémon-through its magic ring

Ash, Pikachu, and their friends come to a desert city by the sea. Here they meet the Mythical Pokémon Hoopa, which has the ability to summon things-including people and Pokémon-through its magic rings. After a scary incident, they.

Ash, Pikachu, and their friends come to a desert city by the sea. After a scary incident, they learn of a story about a brave hero who stopped the rampage of a terrifying Pokémon long ago. Now, the threat that has been bottled up for years is in danger of breaking loose again. or will a dangerous secret erupt into a clash of legends? More.

Pokemon the Movie - Hoopa and the Clash of Ages : When Ash, Pikachu, and their friends visit a desert city by the sea, they meet the Mythical Pokémon Hoopa, who has the ability to summon things-including people and Pokémon-through its magic ring. Genres: Action; Adventure; Animation

Source: BD50 Video: H264 Hi10P 720p Audio: AC3 640 Kbps . Encoder : Omar Server : MegaMan Info .

Pokémon the Movie: Hoopa and the Clash of Ages, known in Japan as Pokémon the Movie XY: The Archdjinni of the Rings: Hoopa (ポケモン・ザ・ムービーXY 光輪リングの超魔神 フーパ Pokemon Za Mūbī Ekkusu Wai Ringu no chōmajin Fūpa) is a 2015 Japanese.

Pokémon the Movie: Hoopa and the Clash of Ages, known in Japan as Pokémon the Movie XY: The Archdjinni of the Rings: Hoopa (ポケモン・ザ・ムービーXY 光輪リングの超魔神 フーパ Pokemon Za Mūbī Ekkusu Wai Ringu no chōmajin Fūpa) is a 2015 Japanese anime adventure film and the 18th in the Pokémon film series created by Satoshi Tajiri.

They match up with the Mythical Pokémon Hoopa, which has the ability to summon things-for example people and Pokémon. Of a story of a brave hero who ceased the rampage of a frightening, they know after a scary episode. The threat that has been bottled up for years is in peril of breaking loose again. Ash, Pikachu, and also their friends come to a desert city. They match up with the Mythical Pokémon Hoopa, which has the ability to summon things-for example people and Pokémon.

Here they meet the Mythical Pokémon Hoopa, which has the ability to summon things-including people and . TV Shows Movies Protect Your Streaming/Download PrivacyProtect. Pokémon the Movie: Hoopa and the Clash of Ages (2015).

Here they meet the Mythical Pokémon Hoopa, which has the ability to summon things-including people and Pokémon-through its magic rings.


Screenshots


Media Information

Unique ID                                : 129848629506164545057032006749269851319 (0x61AFEFB69F8054F1C3535F943488FCB7)
Complete name                            : Pokemon the Movie Hoopa and the Clash of Ages 1080p BDRip x265 AC3 5.1 Goki [SEV].mkv
Format                                   : Matroska
Format version                           : Version 4
File size                                : 4.56 GiB
Duration                                 : 1 h 18 min
Overall bit rate                         : 8 322 kb/s
Movie name                               : Pokemon the Movie Hoopa and the Clash of Ages 1080p BDRip x265 AC3 5.1 Goki [SEV]
Encoded date                             : UTC 2019-06-21 01:52:47
Writing application                      : mkvmerge v28.2.0 ('The Awakening') 64-bit
Writing library                          : libebml v1.3.6 + libmatroska v1.4.9
Video
ID                                       : 1
Format                                   : HEVC
Format/Info                              : High Efficiency Video Coding
Format profile                           : Main [email protected]@Main
Codec ID                                 : V_MPEGH/ISO/HEVC
Duration                                 : 1 h 18 min
Bit rate                                 : 7 235 kb/s
Width                                    : 1 920 pixels
Height                                   : 1 080 pixels
Display aspect ratio                     : 16:9
Frame rate mode                          : Constant
Frame rate                               : 23.976 (24000/1001) FPS
Color space                              : YUV
Chroma subsampling                       : 4:2:0
Bit depth                                : 10 bits
Bits/(Pixel*Frame)                       : 0.146
Stream size                              : 3.97 GiB (87%)
Writing library                          : x265 2.9+8-27d8424c799d:[Windows][MSVC 1915][64 bit] 10bit
Encoding settings                        : cpuid=1111039 / frame-threads=2 / numa-pools=4 / wpp / no-pmode / no-pme / no-psnr / no-ssim / log-level=2 / input-csp=1 / input-res=1920x1080 / interlace=0 / total-frames=0 / level-idc=0 / high-tier=1 / uhd-bd=0 / ref=4 / no-allow-non-conformance / no-repeat-headers / annexb / no-aud / no-hrd / info / hash=0 / no-temporal-layers / open-gop / min-keyint=23 / keyint=250 / gop-lookahead=0 / bframes=8 / b-adapt=2 / b-pyramid / bframe-bias=0 / rc-lookahead=100 / lookahead-slices=4 / scenecut=40 / radl=0 / no-intra-refresh / ctu=64 / min-cu-size=8 / no-rect / no-amp / max-tu-size=32 / tu-inter-depth=2 / tu-intra-depth=2 / limit-tu=4 / rdoq-level=2 / dynamic-rd=0.00 / no-ssim-rd / signhide / no-tskip / nr-intra=0 / nr-inter=0 / no-constrained-intra / no-strong-intra-smoothing / max-merge=3 / limit-refs=2 / limit-modes / me=3 / subme=5 / merange=57 / temporal-mvp / weightp / weightb / no-analyze-src-pics / deblock=0:0 / sao / no-sao-non-deblock / rd=6 / no-early-skip / rskip / no-fast-intra / no-tskip-fast / no-cu-lossless / b-intra / no-splitrd-skip / rdpenalty=0 / psy-rd=1.30 / psy-rdoq=2.00 / no-rd-refine / no-lossless / cbqpoffs=0 / crqpoffs=0 / rc=crf / crf=17.0 / qcomp=0.60 / qpstep=4 / stats-write=0 / stats-read=0 / ipratio=1.40 / pbratio=1.30 / aq-mode=2 / aq-strength=1.10 / cutree / zone-count=0 / no-strict-cbr / qg-size=32 / no-rc-grain / qpmax=69 / qpmin=0 / no-const-vbv / sar=1 / overscan=0 / videoformat=5 / range=0 / colorprim=2 / transfer=2 / colormatrix=2 / chromaloc=0 / display-window=0 / max-cll=0,0 / min-luma=0 / max-luma=1023 / log2-max-poc-lsb=8 / vui-timing-info / vui-hrd-info / slices=1 / no-opt-qp-pps / no-opt-ref-list-length-pps / no-multi-pass-opt-rps / scenecut-bias=0.05 / no-opt-cu-delta-qp / no-aq-motion / no-hdr / no-hdr-opt / no-dhdr10-opt / no-idr-recovery-sei / analysis-reuse-level=5 / scale-factor=0 / refine-intra=0 / refine-inter=0 / refine-mv=0 / no-limit-sao / ctu-info=0 / no-lowpass-dct / refine-mv-type=0 / copy-pic=1 / max-ausize-factor=1.0 / no-dynamic-refine / no-single-sei
Language                                 : Japanese
Default                                  : Yes
Forced                                   : No
Audio #1
ID                                       : 2
Format                                   : AC-3
Format/Info                              : Audio Coding 3
Commercial name                          : Dolby Digital
Codec ID                                 : A_AC3
Duration                                 : 1 h 18 min
Bit rate mode                            : Constant
Bit rate                                 : 448 kb/s
Channel(s)                               : 6 channels
Channel layout                           : L R C LFE Ls Rs
Sampling rate                            : 48.0 kHz
Frame rate                               : 31.250 FPS (1536 SPF)
Bit depth                                : 16 bits
Compression mode                         : Lossy
Delay relative to video                  : 2 s 2 ms
Stream size                              : 251 MiB (5%)
Title                                    : DD 5.1
Language                                 : English
Service kind                             : Complete Main
Default                                  : Yes
Forced                                   : No
Audio #2
ID                                       : 3
Format                                   : AC-3
Format/Info                              : Audio Coding 3
Commercial name                          : Dolby Digital
Codec ID                                 : A_AC3
Duration                                 : 1 h 18 min
Bit rate mode                            : Constant
Bit rate                                 : 640 kb/s
Channel(s)                               : 6 channels
Channel layout                           : L R C LFE Ls Rs
Sampling rate                            : 48.0 kHz
Frame rate                               : 31.250 FPS (1536 SPF)
Bit depth                                : 16 bits
Compression mode                         : Lossy
Stream size                              : 359 MiB (8%)
Title                                    : DD 5.1
Language                                 : Japanese
Service kind                             : Complete Main
Default                                  : No
Forced                                   : No
Text #1
ID                                       : 4
Format                                   : UTF-8
Codec ID                                 : S_TEXT/UTF8
Codec ID/Info                            : UTF-8 Plain Text
Duration                                 : 1 h 17 min
Bit rate                                 : 31 b/s
Count of elements                        : 647
Stream size                              : 17.7 KiB (0%)
Language                                 : English
Default                                  : No
Forced                                   : No
Text #2
ID                                       : 5
Format                                   : ASS
Codec ID                                 : S_TEXT/ASS
Codec ID/Info                            : Advanced Sub Station Alpha
Duration                                 : 1 h 12 min
Bit rate                                 : 58 b/s
Count of elements                        : 714
Compression mode                         : Lossless
Stream size                              : 31.2 KiB (0%)
Language                                 : English
Default                                  : No
Forced                                   : No
Menu
00:00:00.000                             : en:Prison Bottle
00:07:13.199                             : en:Ancient Bonds
00:17:24.994                             : en:Ring Travel
00:27:25.581                             : en:Mythical Powers
00:39:11.616                             : en:Elements Combined
00:49:59.630                             : en:We're Ready
01:03:43.687                             : en:Time & Space
01:13:52.328                             : en:End Credits

Source Information

Unique ID                                : 211612910135522164614436085526114114435 (0x9F3329FD890E05D1A80FC08FF6109B83)
Complete name                            : Pokemon.the.Movie.Hoopa.and.the.Clash.of.Ages.2015.BDremux.mkv
Format                                   : Matroska
Format version                           : Version 4
File size                                : 14.4 GiB
Duration                                 : 1 h 18 min
Overall bit rate mode                    : Variable
Overall bit rate                         : 26.3 Mb/s
Movie name                               : Pokemon the Movie: Hoopa and the Clash of Ages
Encoded date                             : UTC 2016-04-23 01:27:49
Writing application                      : mkvmerge v8.3.0 ('Over the Horizon') 32bit
Writing library                          : libebml v1.3.1 + libmatroska v1.4.2
Attachments                              : Miu.ttf / SOULPAPA.TTF
Video
ID                                       : 1
Format                                   : AVC
Format/Info                              : Advanced Video Codec
Format profile                           : [email protected]
Format settings                          : CABAC / 4 Ref Frames
Format settings, CABAC                   : Yes
Format settings, RefFrames               : 4 frames
Codec ID                                 : V_MPEG4/ISO/AVC
Duration                                 : 1 h 18 min
Bit rate mode                            : Variable
Bit rate                                 : 25.2 Mb/s
Maximum bit rate                         : 40.0 Mb/s
Width                                    : 1 920 pixels
Height                                   : 1 080 pixels
Display aspect ratio                     : 16:9
Frame rate mode                          : Constant
Frame rate                               : 23.976 (24000/1001) FPS
Color space                              : YUV
Chroma subsampling                       : 4:2:0
Bit depth                                : 8 bits
Scan type                                : Progressive
Bits/(Pixel*Frame)                       : 0.507
Stream size                              : 13.8 GiB (96%)
Language                                 : Japanese
Default                                  : Yes
Forced                                   : No
Color range                              : Limited
Color primaries                          : BT.709
Transfer characteristics                 : BT.709
Matrix coefficients                      : BT.709
Audio #1
ID                                       : 2
Format                                   : AC-3
Format/Info                              : Audio Coding 3
Commercial name                          : Dolby Digital
Codec ID                                 : A_AC3
Duration                                 : 1 h 18 min
Bit rate mode                            : Constant
Bit rate                                 : 448 kb/s
Channel(s)                               : 6 channels
Channel layout                           : L R C LFE Ls Rs
Sampling rate                            : 48.0 kHz
Frame rate                               : 31.250 FPS (1536 SPF)
Bit depth                                : 16 bits
Compression mode                         : Lossy
Delay relative to video                  : 2 s 2 ms
Stream size                              : 251 MiB (2%)
Title                                    : DD 5.1
Language                                 : English
Service kind                             : Complete Main
Default                                  : Yes
Forced                                   : No
Audio #2
ID                                       : 3
Format                                   : AC-3
Format/Info                              : Audio Coding 3
Commercial name                          : Dolby Digital
Codec ID                                 : A_AC3
Duration                                 : 1 h 18 min
Bit rate mode                            : Constant
Bit rate                                 : 640 kb/s
Channel(s)                               : 6 channels
Channel layout                           : L R C LFE Ls Rs
Sampling rate                            : 48.0 kHz
Frame rate                               : 31.250 FPS (1536 SPF)
Bit depth                                : 16 bits
Compression mode                         : Lossy
Stream size                              : 359 MiB (2%)
Title                                    : DD 5.1
Language                                 : Japanese
Service kind                             : Complete Main
Default                                  : No
Forced                                   : No
Text #1
ID                                       : 4
Format                                   : UTF-8
Codec ID                                 : S_TEXT/UTF8
Codec ID/Info                            : UTF-8 Plain Text
Duration                                 : 1 h 17 min
Bit rate                                 : 31 b/s
Count of elements                        : 647
Stream size                              : 17.7 KiB (0%)
Title                                    : English captions
Language                                 : English
Default                                  : Yes
Forced                                   : No
Text #2
ID                                       : 5
Format                                   : ASS
Codec ID                                 : S_TEXT/ASS
Codec ID/Info                            : Advanced Sub Station Alpha
Duration                                 : 1 h 12 min
Bit rate                                 : 58 b/s
Count of elements                        : 714
Compression mode                         : Lossless
Stream size                              : 31.2 KiB (0%)
Title                                    : PM
Language                                 : English
Default                                  : No
Forced                                   : No
Menu
00:00:00.000                             : en:Prison Bottle
00:07:13.199                             : en:Ancient Bonds
00:17:24.994                             : en:Ring Travel
00:27:25.581                             : en:Mythical Powers
00:39:11.616                             : en:Elements Combined
00:49:59.630                             : en:We're Ready
01:03:43.687                             : en:Time & Space
01:13:52.328                             : en:End Credits
.........................................................................................................................................
We have no issue with individuals posting or re-uploading our torrents on a platform we aren't on. However, if this is something you'd like to do, please do so in a 'as-is' format. We ask that you do not create a new torrent, include all descriptions you see above including the SEV logo, tags, notes and screenshots. If you'd like to become a permanent poster on a website we don't post to, feel free to get in contact with a Sublime Encoded Video member.
We are recruiting/training new members for SEV & seedbox providers as well as people to help out with subtitles.
As you already know, we deliver quality, so you know the standard.
If you're interested, feel free to contact any of the team members.
[/center]

Images:
https://i.postimg.cc/P5qW5hC2/SEV-logo.png|https://i.postimg.cc/xTWvQ6nk/pokemonhatcoas1.png|https://i.postimg.cc/hPxrfkC8/pokemonhatcoas2.png|https://i.postimg.cc/YCHxgdV5/pokemonhatcoas3.png|https://i.postimg.cc/NGKbw9mz/pokemonhatcoas4.png

Related at Pokemon the Movie Hoopa and the Clash of Ages 1080p BDRip x265 AC3 5 1 Goki :
© 2019 www.gphi.it | Contacts | DMCA | Privacy Policy