» » The Wind Rises 1080p BDRip x265 10bit AC3 1 0 - Goki 2013
Language: English
Size: 6.3 GB
Rating: 4.4
Category: Dual Audio
Votes: 108
The Wind Rises 1080p BDRip x265 10bit AC3 1 0 - Goki 2013
Files:
The Wind Rises (2013) 1080p BDRip x265 10bit AC3 1.0 - Goki
  • The Wind Rises (2013) 1080p BDRip x265 10bit AC3 1.0 - Goki.mkv (6.3 GB)
  • The Wind Rises (2013) 1080p BDRip x265 10bit AC3 1.0 - Goki.nfo (7.7 KB)
  • The Wind Rises (2013) 1080p BDRip x265 10bit AC3 1.0 - Goki-banner.jpg (179.7 KB)
  • The Wind Rises (2013) 1080p BDRip x265 10bit AC3 1.0 - Goki-clearart.png (605.8 KB)
  • The Wind Rises (2013) 1080p BDRip x265 10bit AC3 1.0 - Goki-clearlogo.png (74.5 KB)
  • The Wind Rises (2013) 1080p BDRip x265 10bit AC3 1.0 - Goki-disc.png (376.2 KB)
  • The Wind Rises (2013) 1080p BDRip x265 10bit AC3 1.0 - Goki-fanart.jpg (644.1 KB)
  • The Wind Rises (2013) 1080p BDRip x265 10bit AC3 1.0 - Goki-keyart.jpg (517.1 KB)
  • The Wind Rises (2013) 1080p BDRip x265 10bit AC3 1.0 - Goki-logo.png (74.5 KB)
  • The Wind Rises (2013) 1080p BDRip x265 10bit AC3 1.0 - Goki-poster.jpg (660.9 KB)
  • The Wind Rises (2013) 1080p BDRip x265 10bit AC3 1.0 - Goki-thumb.jpg (490.0 KB)


ch The-Wind-Rises-(2013)bit-AC3-1-0-Goki Other. 1 hour 0 1. Tracker list.

ch The-Wind-Rises-(2013)bit-AC3-1-0-Goki Other. The Wind Rises (2013) 1080p BDRip x265 10bit AC3 . - Goki. mkv6,484 MB. nfo8 KB. - Goki-banner.

Snow White and the Seven Dwarfs (1937) (1080p BDRip x265 10bit EAC3 . - Goki)9.

season 11 muay thai fighter (2007) hindi dubbed hindi 18+ 香蕉视频app 肛门双头龙 All'ombra della luna the h Callidus We Need to Talk about Kevin ita Dissecting Ruby on Rails 5 devianthardcore Security Pussy Hymens person of interest season 4 e2 hot movie Indian W cieniu księżyca vr porn genious.

Video ID : 1 Format : HEVC Format/Info : High Efficiency Video Coding Format profile : Main [email protected] Codec ID : V MPEGH/ISO/HEVC Duration : 2 h 6 min Bit rate : 2 109 kb/s Width : 1 920 pixels Height : 1 040 pixels Display aspect ratio : . 5:1 Frame rate mode : Constant Frame rate.

Similar Threads for: Green Lantern - First Flight (2009) 1080p BDRip x265 10bit AC3 5 1 - Goki.

Video Video Source: Blu ray Video Codec: . 65/HEVC (10-bit) Video Resolution: 1920x1080p HD (16:9) Audio Codec: AC3 Track 1: English . ch Track . Ravensborne Nucleochede (BDRip 1080p AC3 10bit).

Ravensborne Nucleochede (BDRip 1080p AC3 10bit). Freezing 12 Satellizer VS. Pandora (BDRip 1080p AC3 10bit). Freezing OVA 01 (BDRip 1080p AC3 10bit). Freezing OVA 02 (BDRip 1080p AC3 10bit). Freezing OVA 03 (BDRip 1080p AC3 10bit).

Movie info: The Wind Rises is the 11th animated theatrical film directed by Hayao Miyazaki at Studio Ghibli

Movie info: The Wind Rises is the 11th animated theatrical film directed by Hayao Miyazaki at Studio Ghibli. Based on Miyazaki’s own manga and the 1937 short novel of the same name by Tatsuo Hori, this is the story of Jirō Horikoshi, the aircraft engineer most remembered for his design work on the Mitsubishi A6M Reisen Zero, Japan’s famous World War II fighter aircraft. During the WWII years, the Miyazaki family business manufactured aircraft parts, including the windshields and rudders used on the Zero.



The Wind Rises IMDB

Screenshots


Media Information

Unique ID                                : 266688769282212982166340960471038617020 (0xC8A2637F2C02015AE477F94B974CE5BC)
Complete name                            : The Wind Rises 1080p BDRip x265 10bit AC3 1.0 - Goki.mkv
Format                                   : Matroska
Format version                           : Version 4
File size                                : 6.33 GiB
Duration                                 : 2 h 6 min
Overall bit rate                         : 7 165 kb/s
Movie name                               : The Wind Rises 1080p BDRip x265 10bit AC3 1.0 - Goki
Encoded date                             : UTC 2019-09-08 03:23:00
Writing application                      : mkvmerge v28.2.0 ('The Awakening') 64-bit
Writing library                          : libebml v1.3.6 + libmatroska v1.4.9 / Lavf57.73.100
Writing application                      : Internet Friendly Media Encoder v7.7 ('Prism Ark')
Writing library                          : IFME v7.7 amd64 windows
Video
ID                                       : 1
Format                                   : HEVC
Format/Info                              : High Efficiency Video Coding
Format profile                           : Main [email protected]@Main
Codec ID                                 : V_MPEGH/ISO/HEVC
Duration                                 : 2 h 6 min
Bit rate                                 : 5 707 kb/s
Width                                    : 1 920 pixels
Height                                   : 1 080 pixels
Display aspect ratio                     : 16:9
Frame rate mode                          : Constant
Frame rate                               : 23.976 (24000/1001) FPS
Color space                              : YUV
Chroma subsampling                       : 4:2:0
Bit depth                                : 10 bits
Bits/(Pixel*Frame)                       : 0.115
Stream size                              : 5.04 GiB (80%)
Writing library                          : x265 2.9+8-27d8424c799d:[Windows][GCC 8.2.0][64 bit] 10bit
Encoding settings                        : cpuid=1049071 / frame-threads=3 / numa-pools=8 / wpp / no-pmode / no-pme / no-psnr / no-ssim / log-level=2 / input-csp=1 / input-res=1920x1080 / interlace=0 / total-frames=0 / level-idc=0 / high-tier=1 / uhd-bd=0 / ref=4 / no-allow-non-conformance / no-repeat-headers / annexb / no-aud / no-hrd / info / hash=0 / no-temporal-layers / open-gop / min-keyint=23 / keyint=250 / gop-lookahead=0 / bframes=8 / b-adapt=2 / b-pyramid / bframe-bias=0 / rc-lookahead=100 / lookahead-slices=4 / scenecut=40 / radl=0 / no-intra-refresh / ctu=64 / min-cu-size=8 / no-rect / no-amp / max-tu-size=32 / tu-inter-depth=2 / tu-intra-depth=2 / limit-tu=4 / rdoq-level=2 / dynamic-rd=0.00 / no-ssim-rd / signhide / no-tskip / nr-intra=0 / nr-inter=0 / no-constrained-intra / no-strong-intra-smoothing / max-merge=3 / limit-refs=2 / limit-modes / me=3 / subme=5 / merange=57 / temporal-mvp / weightp / weightb / no-analyze-src-pics / deblock=0:0 / sao / no-sao-non-deblock / rd=6 / no-early-skip / rskip / no-fast-intra / no-tskip-fast / no-cu-lossless / b-intra / no-splitrd-skip / rdpenalty=0 / psy-rd=1.30 / psy-rdoq=2.00 / no-rd-refine / no-lossless / cbqpoffs=0 / crqpoffs=0 / rc=crf / crf=17.0 / qcomp=0.60 / qpstep=4 / stats-write=0 / stats-read=0 / ipratio=1.40 / pbratio=1.30 / aq-mode=2 / aq-strength=1.10 / cutree / zone-count=0 / no-strict-cbr / qg-size=32 / no-rc-grain / qpmax=69 / qpmin=0 / no-const-vbv / sar=1 / overscan=0 / videoformat=5 / range=0 / colorprim=2 / transfer=2 / colormatrix=2 / chromaloc=0 / display-window=0 / max-cll=0,0 / min-luma=0 / max-luma=1023 / log2-max-poc-lsb=8 / vui-timing-info / vui-hrd-info / slices=1 / no-opt-qp-pps / no-opt-ref-list-length-pps / no-multi-pass-opt-rps / scenecut-bias=0.05 / no-opt-cu-delta-qp / no-aq-motion / no-hdr / no-hdr-opt / no-dhdr10-opt / no-idr-recovery-sei / analysis-reuse-level=5 / scale-factor=0 / refine-intra=0 / refine-inter=0 / refine-mv=0 / no-limit-sao / ctu-info=0 / no-lowpass-dct / refine-mv-type=0 / copy-pic=1 / max-ausize-factor=1.0 / no-dynamic-refine / no-single-sei
Language                                 : English
Default                                  : Yes
Forced                                   : No
Audio #1
ID                                       : 2
Format                                   : AC-3
Format/Info                              : Audio Coding 3
Commercial name                          : Dolby Digital
Codec ID                                 : A_AC3
Duration                                 : 2 h 6 min
Bit rate mode                            : Constant
Bit rate                                 : 192 kb/s
Channel(s)                               : 1 channel
Channel layout                           : C
Sampling rate                            : 48.0 kHz
Frame rate                               : 31.250 FPS (1536 SPF)
Bit depth                                : 16 bits
Compression mode                         : Lossy
Stream size                              : 174 MiB (3%)
Title                                    : Mono
Language                                 : English
Service kind                             : Complete Main
Default                                  : Yes
Forced                                   : No
Audio #2
ID                                       : 3
Format                                   : AAC LC
Format/Info                              : Advanced Audio Codec Low Complexity
Codec ID                                 : A_AAC-2
Duration                                 : 2 h 6 min
Bit rate                                 : 160 kb/s
Channel(s)                               : 2 channels
Channel layout                           : L R
Sampling rate                            : 48.0 kHz
Frame rate                               : 46.875 FPS (1024 SPF)
Compression mode                         : Lossy
Delay relative to video                  : 9 ms
Stream size                              : 145 MiB (2%)
Title                                    : Stereo
Language                                 : Japanese
Default                                  : No
Forced                                   : No
Audio #3
ID                                       : 4
Format                                   : AC-3
Format/Info                              : Audio Coding 3
Commercial name                          : Dolby Digital
Codec ID                                 : A_AC3
Duration                                 : 2 h 6 min
Bit rate mode                            : Constant
Bit rate                                 : 192 kb/s
Channel(s)                               : 1 channel
Channel layout                           : C
Sampling rate                            : 48.0 kHz
Frame rate                               : 31.250 FPS (1536 SPF)
Bit depth                                : 16 bits
Compression mode                         : Lossy
Stream size                              : 174 MiB (3%)
Title                                    : Mono
Language                                 : French
Service kind                             : Complete Main
Default                                  : No
Forced                                   : No
Audio #4
ID                                       : 5
Format                                   : AC-3
Format/Info                              : Audio Coding 3
Commercial name                          : Dolby Digital
Codec ID                                 : A_AC3
Duration                                 : 2 h 6 min
Bit rate mode                            : Constant
Bit rate                                 : 192 kb/s
Channel(s)                               : 1 channel
Channel layout                           : C
Sampling rate                            : 48.0 kHz
Frame rate                               : 31.250 FPS (1536 SPF)
Bit depth                                : 16 bits
Compression mode                         : Lossy
Stream size                              : 174 MiB (3%)
Title                                    : Mono
Language                                 : Russian
Service kind                             : Complete Main
Default                                  : No
Forced                                   : No
Audio #5
ID                                       : 6
Format                                   : AC-3
Format/Info                              : Audio Coding 3
Commercial name                          : Dolby Digital
Codec ID                                 : A_AC3
Duration                                 : 2 h 6 min
Bit rate mode                            : Constant
Bit rate                                 : 192 kb/s
Channel(s)                               : 1 channel
Channel layout                           : C
Sampling rate                            : 48.0 kHz
Frame rate                               : 31.250 FPS (1536 SPF)
Bit depth                                : 16 bits
Compression mode                         : Lossy
Stream size                              : 174 MiB (3%)
Title                                    : Mono
Language                                 : Korean
Service kind                             : Complete Main
Default                                  : No
Forced                                   : No
Audio #6
ID                                       : 7
Format                                   : AC-3
Format/Info                              : Audio Coding 3
Commercial name                          : Dolby Digital
Codec ID                                 : A_AC3
Duration                                 : 2 h 6 min
Bit rate mode                            : Constant
Bit rate                                 : 192 kb/s
Channel(s)                               : 1 channel
Channel layout                           : C
Sampling rate                            : 48.0 kHz
Frame rate                               : 31.250 FPS (1536 SPF)
Bit depth                                : 16 bits
Compression mode                         : Lossy
Stream size                              : 174 MiB (3%)
Title                                    : Mono
Language                                 : Chinese
Service kind                             : Complete Main
Default                                  : No
Forced                                   : No
Audio #7
ID                                       : 8
Format                                   : AC-3
Format/Info                              : Audio Coding 3
Commercial name                          : Dolby Digital
Codec ID                                 : A_AC3
Duration                                 : 2 h 6 min
Bit rate mode                            : Constant
Bit rate                                 : 192 kb/s
Channel(s)                               : 1 channel
Channel layout                           : C
Sampling rate                            : 48.0 kHz
Frame rate                               : 31.250 FPS (1536 SPF)
Bit depth                                : 16 bits
Compression mode                         : Lossy
Stream size                              : 174 MiB (3%)
Title                                    : Mono
Language                                 : Chinese
Service kind                             : Complete Main
Default                                  : No
Forced                                   : No
Text #1
ID                                       : 9
Format                                   : PGS
Codec ID                                 : S_HDMV/PGS
Codec ID/Info                            : Picture based subtitle format used on BDs/HD-DVDs
Duration                                 : 2 h 6 min
Bit rate                                 : 28.5 kb/s
Count of elements                        : 2028
Stream size                              : 25.7 MiB (0%)
Language                                 : English
Default                                  : No
Forced                                   : No
Text #2
ID                                       : 10
Format                                   : PGS
Codec ID                                 : S_HDMV/PGS
Codec ID/Info                            : Picture based subtitle format used on BDs/HD-DVDs
Duration                                 : 2 h 0 min
Bit rate                                 : 23.8 kb/s
Count of elements                        : 2814
Stream size                              : 20.6 MiB (0%)
Language                                 : Japanese
Default                                  : No
Forced                                   : No
Text #3
ID                                       : 11
Format                                   : PGS
Codec ID                                 : S_HDMV/PGS
Codec ID/Info                            : Picture based subtitle format used on BDs/HD-DVDs
Duration                                 : 2 h 6 min
Bit rate                                 : 29.2 kb/s
Count of elements                        : 2248
Stream size                              : 26.4 MiB (0%)
Language                                 : French
Default                                  : No
Forced                                   : No
Text #4
ID                                       : 12
Format                                   : PGS
Codec ID                                 : S_HDMV/PGS
Codec ID/Info                            : Picture based subtitle format used on BDs/HD-DVDs
Duration                                 : 2 h 6 min
Bit rate                                 : 17.9 kb/s
Count of elements                        : 2540
Stream size                              : 16.2 MiB (0%)
Language                                 : Korean
Default                                  : No
Forced                                   : No
Text #5
ID                                       : 13
Format                                   : PGS
Codec ID                                 : S_HDMV/PGS
Codec ID/Info                            : Picture based subtitle format used on BDs/HD-DVDs
Duration                                 : 2 h 6 min
Bit rate                                 : 23.7 kb/s
Count of elements                        : 2642
Stream size                              : 21.4 MiB (0%)
Language                                 : Chinese
Default                                  : No
Forced                                   : No
Text #6
ID                                       : 14
Format                                   : PGS
Codec ID                                 : S_HDMV/PGS
Codec ID/Info                            : Picture based subtitle format used on BDs/HD-DVDs
Duration                                 : 2 h 6 min
Bit rate                                 : 19.8 kb/s
Count of elements                        : 2292
Stream size                              : 17.9 MiB (0%)
Language                                 : Chinese
Default                                  : No
Forced                                   : No
Menu
00:00:00.000                             : :Chapter 01
00:07:09.220                             : :Chapter 02
00:12:52.688                             : :Chapter 03
00:21:53.979                             : :Chapter 04
00:30:06.471                             : :Chapter 05
00:37:49.433                             : :Chapter 06
00:44:57.528                             : :Chapter 07
00:52:59.634                             : :Chapter 08
01:00:33.755                             : :Chapter 09
01:08:06.290                             : :Chapter 10
01:17:12.669                             : :Chapter 11
01:28:44.027                             : :Chapter 12
01:35:20.548                             : :Chapter 13
01:46:39.059                             : :Chapter 14
01:52:45.884                             : :Chapter 15
02:02:56.744                             : :Chapter 16
02:06:30.165                             : :Chapter 17

Source Information

Unique ID                                : 35339411392067339126324596733158625069 (0x1A961F80F8B9B4BEDAAC806BA3440F2D)
Complete name                            : The Wind Rises.mkv
Format                                   : Matroska
Format version                           : Version 2
File size                                : 33.6 GiB
Duration                                 : 2 h 6 min
Overall bit rate                         : 38.0 Mb/s
Encoded date                             : UTC 2018-12-10 22:06:47
Writing application                      : MakeMKV v1.10.8 win(x64-release)
Writing library                          : libmakemkv v1.10.8 (1.3.5/1.4.7) win(x64-release)
Original source medium                   : Blu-ray
Video
ID                                       : 1
ID in the original source medium         : 4113 (0x1011)
Format                                   : AVC
Format/Info                              : Advanced Video Codec
Format profile                           : [email protected]
Format settings, CABAC                   : Yes
Format settings, RefFrames               : 2 frames
Format settings, GOP                     : M=3, N=24
Codec ID                                 : V_MPEG4/ISO/AVC
Duration                                 : 2 h 6 min
Bit rate                                 : 32.5 Mb/s
Width                                    : 1 920 pixels
Height                                   : 1 080 pixels
Display aspect ratio                     : 16:9
Frame rate mode                          : Constant
Frame rate                               : 23.976 (24000/1001) FPS
Color space                              : YUV
Chroma subsampling                       : 4:2:0
Bit depth                                : 8 bits
Scan type                                : Progressive
Bits/(Pixel*Frame)                       : 0.654
Stream size                              : 28.7 GiB (86%)
Language                                 : English
Default                                  : No
Forced                                   : No
Audio #1
ID                                       : 2
ID in the original source medium         : 4352 (0x1100)
Format                                   : PCM
Codec ID                                 : A_PCM/INT/LIT
Duration                                 : 2 h 6 min
Bit rate mode                            : Constant
Bit rate                                 : 2 304 kb/s
Channel(s)                               : 2 channels
Sampling rate                            : 48.0 kHz
Frame rate                               : 30.000 FPS (1600 SPF)
Bit depth                                : 24 bits
Stream size                              : 2.04 GiB (6%)
Title                                    : Stereo
Language                                 : Japanese
Default                                  : Yes
Forced                                   : No
Audio #2
ID                                       : 3
ID in the original source medium         : 4353 (0x1101)
Format                                   : DTS
Format/Info                              : Digital Theater Systems
Format profile                           : MA / Core
Mode                                     : 16
Format settings, Endianness              : Big
Codec ID                                 : A_DTS
Duration                                 : 2 h 6 min
Bit rate mode                            : Variable / Constant
Bit rate                                 : 1 128 kb/s / 768 kb/s
Channel(s)                               : 1 channel
Channel positions                        : Front: C
Sampling rate                            : 48.0 kHz
Frame rate                               : 93.750 FPS (512 SPF)
Bit depth                                : 24 bits
Compression mode                         : Lossless / Lossy
Stream size                              : 1 020 MiB (3%)
Title                                    : Mono
Language                                 : Japanese
Default                                  : No
Forced                                   : No
Audio #3
ID                                       : 4
ID in the original source medium         : 4353 (0x1101)
Format                                   : DTS
Format/Info                              : Digital Theater Systems
Mode                                     : 16
Format settings, Endianness              : Big
Codec ID                                 : A_DTS
Duration                                 : 2 h 6 min
Bit rate mode                            : Constant
Bit rate                                 : 768 kb/s
Channel(s)                               : 1 channel
Channel positions                        : Front: C
Sampling rate                            : 48.0 kHz
Frame rate                               : 93.750 FPS (512 SPF)
Bit depth                                : 24 bits
Compression mode                         : Lossy
Stream size                              : 695 MiB (2%)
Title                                    : Mono
Language                                 : Japanese
Default                                  : No
Forced                                   : No
Audio #4
ID                                       : 5
ID in the original source medium         : 4354 (0x1102)
Format                                   : AC-3
Format/Info                              : Audio Coding 3
Format settings, Endianness              : Big
Codec ID                                 : A_AC3
Duration                                 : 2 h 6 min
Bit rate mode                            : Constant
Bit rate                                 : 192 kb/s
Channel(s)                               : 1 channel
Channel positions                        : Front: C
Sampling rate                            : 48.0 kHz
Frame rate                               : 31.250 FPS (1536 SPF)
Bit depth                                : 16 bits
Compression mode                         : Lossy
Stream size                              : 174 MiB (1%)
Title                                    : Mono
Language                                 : English
Service kind                             : Complete Main
Default                                  : No
Forced                                   : No
Audio #5
ID                                       : 6
ID in the original source medium         : 4355 (0x1103)
Format                                   : AC-3
Format/Info                              : Audio Coding 3
Format settings, Endianness              : Big
Codec ID                                 : A_AC3
Duration                                 : 2 h 6 min
Bit rate mode                            : Constant
Bit rate                                 : 192 kb/s
Channel(s)                               : 1 channel
Channel positions                        : Front: C
Sampling rate                            : 48.0 kHz
Frame rate                               : 31.250 FPS (1536 SPF)
Bit depth                                : 16 bits
Compression mode                         : Lossy
Stream size                              : 174 MiB (1%)
Title                                    : Mono
Language                                 : French
Service kind                             : Complete Main
Default                                  : No
Forced                                   : No
Audio #6
ID                                       : 7
ID in the original source medium         : 4356 (0x1104)
Format                                   : AC-3
Format/Info                              : Audio Coding 3
Format settings, Endianness              : Big
Codec ID                                 : A_AC3
Duration                                 : 2 h 6 min
Bit rate mode                            : Constant
Bit rate                                 : 192 kb/s
Channel(s)                               : 1 channel
Channel positions                        : Front: C
Sampling rate                            : 48.0 kHz
Frame rate                               : 31.250 FPS (1536 SPF)
Bit depth                                : 16 bits
Compression mode                         : Lossy
Stream size                              : 174 MiB (1%)
Title                                    : Mono
Language                                 : Russian
Service kind                             : Complete Main
Default                                  : No
Forced                                   : No
Audio #7
ID                                       : 8
ID in the original source medium         : 4357 (0x1105)
Format                                   : AC-3
Format/Info                              : Audio Coding 3
Format settings, Endianness              : Big
Codec ID                                 : A_AC3
Duration                                 : 2 h 6 min
Bit rate mode                            : Constant
Bit rate                                 : 192 kb/s
Channel(s)                               : 1 channel
Channel positions                        : Front: C
Sampling rate                            : 48.0 kHz
Frame rate                               : 31.250 FPS (1536 SPF)
Bit depth                                : 16 bits
Compression mode                         : Lossy
Stream size                              : 174 MiB (1%)
Title                                    : Mono
Language                                 : Korean
Service kind                             : Complete Main
Default                                  : No
Forced                                   : No
Audio #8
ID                                       : 9
ID in the original source medium         : 4358 (0x1106)
Format                                   : AC-3
Format/Info                              : Audio Coding 3
Format settings, Endianness              : Big
Codec ID                                 : A_AC3
Duration                                 : 2 h 6 min
Bit rate mode                            : Constant
Bit rate                                 : 192 kb/s
Channel(s)                               : 1 channel
Channel positions                        : Front: C
Sampling rate                            : 48.0 kHz
Frame rate                               : 31.250 FPS (1536 SPF)
Bit depth                                : 16 bits
Compression mode                         : Lossy
Stream size                              : 174 MiB (1%)
Title                                    : Mono
Language                                 : Chinese
Service kind                             : Complete Main
Default                                  : No
Forced                                   : No
Audio #9
ID                                       : 10
ID in the original source medium         : 4359 (0x1107)
Format                                   : AC-3
Format/Info                              : Audio Coding 3
Format settings, Endianness              : Big
Codec ID                                 : A_AC3
Duration                                 : 2 h 6 min
Bit rate mode                            : Constant
Bit rate                                 : 192 kb/s
Channel(s)                               : 1 channel
Channel positions                        : Front: C
Sampling rate                            : 48.0 kHz
Frame rate                               : 31.250 FPS (1536 SPF)
Bit depth                                : 16 bits
Compression mode                         : Lossy
Stream size                              : 174 MiB (1%)
Title                                    : Mono
Language                                 : Chinese
Service kind                             : Complete Main
Default                                  : No
Forced                                   : No
Text #1
ID                                       : 11
ID in the original source medium         : 4608 (0x1200)
Format                                   : PGS
Codec ID                                 : S_HDMV/PGS
Codec ID/Info                            : Picture based subtitle format used on BDs/HD-DVDs
Duration                                 : 2 h 0 min
Bit rate                                 : 23.8 kb/s
Count of elements                        : 2814
Stream size                              : 20.6 MiB (0%)
Language                                 : Japanese
Default                                  : No
Forced                                   : No
Text #2
ID                                       : 13
ID in the original source medium         : 4609 (0x1201)
Format                                   : PGS
Codec ID                                 : S_HDMV/PGS
Codec ID/Info                            : Picture based subtitle format used on BDs/HD-DVDs
Duration                                 : 2 h 6 min
Bit rate                                 : 28.5 kb/s
Count of elements                        : 2028
Stream size                              : 25.7 MiB (0%)
Language                                 : English
Default                                  : No
Forced                                   : No
Text #3
ID                                       : 15
ID in the original source medium         : 4610 (0x1202)
Format                                   : PGS
Codec ID                                 : S_HDMV/PGS
Codec ID/Info                            : Picture based subtitle format used on BDs/HD-DVDs
Duration                                 : 2 h 6 min
Bit rate                                 : 29.2 kb/s
Count of elements                        : 2248
Stream size                              : 26.4 MiB (0%)
Language                                 : French
Default                                  : No
Forced                                   : No
Text #4
ID                                       : 17
ID in the original source medium         : 4611 (0x1203)
Format                                   : PGS
Codec ID                                 : S_HDMV/PGS
Codec ID/Info                            : Picture based subtitle format used on BDs/HD-DVDs
Duration                                 : 2 h 6 min
Bit rate                                 : 17.9 kb/s
Count of elements                        : 2540
Stream size                              : 16.2 MiB (0%)
Language                                 : Korean
Default                                  : No
Forced                                   : No
Text #5
ID                                       : 19
ID in the original source medium         : 4612 (0x1204)
Format                                   : PGS
Codec ID                                 : S_HDMV/PGS
Codec ID/Info                            : Picture based subtitle format used on BDs/HD-DVDs
Duration                                 : 2 h 6 min
Bit rate                                 : 23.7 kb/s
Count of elements                        : 2642
Stream size                              : 21.4 MiB (0%)
Language                                 : Chinese
Default                                  : No
Forced                                   : No
Text #6
ID                                       : 21
ID in the original source medium         : 4613 (0x1205)
Format                                   : PGS
Codec ID                                 : S_HDMV/PGS
Codec ID/Info                            : Picture based subtitle format used on BDs/HD-DVDs
Duration                                 : 2 h 6 min
Bit rate                                 : 19.8 kb/s
Count of elements                        : 2292
Stream size                              : 17.9 MiB (0%)
Language                                 : Chinese
Default                                  : No
Forced                                   : No
Menu
00:00:00.000                             : en:Chapter 01
00:07:09.220                             : en:Chapter 02
00:12:52.688                             : en:Chapter 03
00:21:53.979                             : en:Chapter 04
00:30:06.471                             : en:Chapter 05
00:37:49.433                             : en:Chapter 06
00:44:57.528                             : en:Chapter 07
00:52:59.634                             : en:Chapter 08
01:00:33.755                             : en:Chapter 09
01:08:06.290                             : en:Chapter 10
01:17:12.669                             : en:Chapter 11
01:28:44.027                             : en:Chapter 12
01:35:20.548                             : en:Chapter 13
01:46:39.059                             : en:Chapter 14
01:52:45.884                             : en:Chapter 15
02:02:56.744                             : en:Chapter 16
02:06:30.165                             : en:Chapter 17

.........................................................................................................................................

Images:
https://i.postimg.cc/rFvtHwWJ/Goki2.png|https://i.ytimg.com/vi/RzSpDgiF5y8/maxresdefault.jpg|https://i.postimg.cc/9MBGLGMN/twrs1.png|https://i.postimg.cc/sDxpJGRw/twrs2.png|https://i.postimg.cc/76qzJfV1/twrs3.png|https://i.postimg.cc/g0F8dMLT/twrs4.png

Related at The Wind Rises 1080p BDRip x265 10bit AC3 1 0 - Goki:
Comments 2
Boyn
Thank you! And I love this quality/file size ratio.
Chilele
Enjoy! :)
© 2019 www.gphi.it | Contacts | DMCA | Privacy Policy