» » Dragon Ball Z - The World's Strongest 1080p BDRip x265 AC3 5 1 Goki 1990
Language: English
Size: 5.8 GB
Rating: 4.0
Category: Dual Audio
Votes: 923
Dragon Ball Z - The World's Strongest 1080p BDRip x265 AC3 5 1 Goki 1990
Files:
Dragon Ball Z - The World's Strongest (1990) 1080p BDRip x265 AC3 5.1 Goki [SEV]
  • Dragon Ball Z - The World's Strongest (1990) 1080p BDRip x265 AC3 5.1 Goki [SEV].mkv (5.8 GB)
  • Dragon Ball Z - The World's Strongest (1990) 1080p BDRip x265 AC3 5.1 Goki [SEV].nfo (6.1 KB)
  • Dragon Ball Z - The World's Strongest (1990) 1080p BDRip x265 AC3 5.1 Goki [SEV]-clearlogo.png (176.2 KB)
  • Dragon Ball Z - The World's Strongest (1990) 1080p BDRip x265 AC3 5.1 Goki [SEV]-fanart.jpg (67.6 KB)
  • Dragon Ball Z - The World's Strongest (1990) 1080p BDRip x265 AC3 5.1 Goki [SEV]-logo.png (176.2 KB)
  • Dragon Ball Z - The World's Strongest (1990) 1080p BDRip x265 AC3 5.1 Goki [SEV]-poster.jpg (82.8 KB)


Dragon Ball Z: Kono Yo de Ichiban Tsuyoi Yatsu - .

Dragon Ball Z: Kono Yo de Ichiban Tsuyoi Yatsu - .

tv - Watch Dragon Ball Z: The World& Strongest online full movie for free on xmovies8. The evil Dr. Kochin uses the dragon balls to resurrect his mentor, Dr. Wheelo, in an effort to take over the world. Dr. Wheelo, his body having been destroyed by the avalanche that killed him fifty years before, desires the body of the strongest fighter in the world as his new vessel.

mkv (. GB). Tracker details.

Dragon Ball Z: The World's Strongest, also known by Toei's own English title The Strongest Guy in the World, is a 1990 Japanese animated science fiction martial arts film and the second feature movie in the Dragon Ball Z franchise

Dragon Ball Z: The World's Strongest, also known by Toei's own English title The Strongest Guy in the World, is a 1990 Japanese animated science fiction martial arts film and the second feature movie in the Dragon Ball Z franchise. It was originally released in Japan on March 10 between episodes 39 and 40 of DBZ, at the "Toei Manga Matsuri" film festival along with the second Akuma-kun movie (Welcome To Devil Land) and the 1990 movie version of Sally the Witch.

mkv, mp4, etc) is encouraged but not necessary. 6. All posted material must be a personal upload to Mega. No imports from any sites are allowed.

Believing Roshi to be the world’s strongest warrior, Dr. Kochin abducts Bulma and forces Roshi to give up himself to avoid wasting her. When Goku hears of their abduction, he goes to their rescue. Genre: Action, Animation. Director: Daisuke Nishio. Actors: Hiromi Tsuru, Kenji Utsumi, Kōhei Miyauchi, Masako Nozawa, Mayumi Tanaka, Naoki Tatsuta, Toshio Furukawa. Duration: 59 min. Release: 1990. Kochin abducts Bulma and forces Roshi to give up himself to avoid . Trailer: Dragon Ball Z: The World’s Strongest. Please help us to describe the issue so we can fix it asap. Tags: 1080p, 123Movies, 720p, dragon, gomovies, openload, Putlocker, strongest, watchfree, world. Tags: 1080p, 123Movies, 720p. ountry: France, USA. Genre: Action, Crime, Romance, Thriller.

The evil Dr. Wheelo, in an effort to take over the world

The evil Dr. Believing Roshi to be the world's strongest warrior, Dr. Kochin abducts Bulma and forces Roshi to surrender himself to save her. Dragon Ball Z The World's Strongest (1990) (1080p BluRay x265 HEVC 10bit MLPFBA . SAMPA) (. 7 GB). Dragon Ball Z The World's Strongest (1990) (1080p BluRay x265 SAMPA). 7 GB. Related Torrents.

ch rld s-Strongest-(1990)ueHD-5-1-Goki- Anime.

info rld s-Strongest-(1990)ueHD-5-1-Goki- Anime. co Dragon Ball Z - The World's Strongest (1990) 1080p BDRip x265 TrueHD 5 1 Goki Anime. ch rld s-Strongest-(1990)ueHD-5-1-Goki- Anime. eu Dragon Ball Z - The World's Strongest (1990) 1080p BDRip x265 TrueHD . Goki video.


Screenshots


Media Information

Unique ID : 50740592221983683561474223302504506008 (0x262C48582FDBDADEB141C6F508026298)
Complete name : Dragon Ball Z - The World's Strongest 1080p BDRip x265 AC3 5.1 Goki [SEV].mkv
Format : Matroska
Format version : Version 4
File size : 5.85 GiB
Duration : 59 min 29 s
Overall bit rate : 14.1 Mb/s
Movie name : Dragon Ball Z - The World's Strongest 1080p BDRip x265 AC3 5.1 Goki [SEV]
Encoded date : UTC 2019-07-17 02:58:00
Writing application : mkvmerge v28.2.0 ('The Awakening') 64-bit
Writing library : libebml v1.3.6 + libmatroska v1.4.9
Video
ID : 1
Format : HEVC
Format/Info : High Efficiency Video Coding
Format profile : Main [email protected]@Main
Codec ID : V_MPEGH/ISO/HEVC
Duration : 59 min 29 s
Bit rate : 12.8 Mb/s
Width : 1 920 pixels
Height : 1 080 pixels
Display aspect ratio : 16:9
Frame rate mode : Constant
Frame rate : 23.976 (24000/1001) FPS
Color space : YUV
Chroma subsampling : 4:2:0
Bit depth : 10 bits
Bits/(Pixel*Frame) : 0.257
Stream size : 5.31 GiB (91%)
Writing library : x265 2.9+8-27d8424c799d:[Windows][MSVC 1915][64 bit] 10bit
Encoding settings : cpuid=1111039 / frame-threads=2 / numa-pools=4 / wpp / no-pmode / no-pme / no-psnr / no-ssim / log-level=2 / input-csp=1 / input-res=1920x1080 / interlace=0 / total-frames=0 / level-idc=0 / high-tier=1 / uhd-bd=0 / ref=4 / no-allow-non-conformance / no-repeat-headers / annexb / no-aud / no-hrd / info / hash=0 / no-temporal-layers / open-gop / min-keyint=23 / keyint=250 / gop-lookahead=0 / bframes=8 / b-adapt=2 / b-pyramid / bframe-bias=0 / rc-lookahead=100 / lookahead-slices=4 / scenecut=40 / radl=0 / no-intra-refresh / ctu=64 / min-cu-size=8 / no-rect / no-amp / max-tu-size=32 / tu-inter-depth=2 / tu-intra-depth=2 / limit-tu=4 / rdoq-level=2 / dynamic-rd=0.00 / no-ssim-rd / signhide / no-tskip / nr-intra=0 / nr-inter=0 / no-constrained-intra / no-strong-intra-smoothing / max-merge=3 / limit-refs=2 / limit-modes / me=3 / subme=5 / merange=57 / temporal-mvp / weightp / weightb / no-analyze-src-pics / deblock=0:0 / sao / no-sao-non-deblock / rd=6 / no-early-skip / rskip / no-fast-intra / no-tskip-fast / no-cu-lossless / b-intra / no-splitrd-skip / rdpenalty=0 / psy-rd=1.30 / psy-rdoq=2.00 / no-rd-refine / no-lossless / cbqpoffs=0 / crqpoffs=0 / rc=crf / crf=17.0 / qcomp=0.60 / qpstep=4 / stats-write=0 / stats-read=0 / ipratio=1.40 / pbratio=1.30 / aq-mode=2 / aq-strength=1.10 / cutree / zone-count=0 / no-strict-cbr / qg-size=32 / no-rc-grain / qpmax=69 / qpmin=0 / no-const-vbv / sar=1 / overscan=0 / videoformat=5 / range=0 / colorprim=2 / transfer=2 / colormatrix=2 / chromaloc=0 / display-window=0 / max-cll=0,0 / min-luma=0 / max-luma=1023 / log2-max-poc-lsb=8 / vui-timing-info / vui-hrd-info / slices=1 / no-opt-qp-pps / no-opt-ref-list-length-pps / no-multi-pass-opt-rps / scenecut-bias=0.05 / no-opt-cu-delta-qp / no-aq-motion / no-hdr / no-hdr-opt / no-dhdr10-opt / no-idr-recovery-sei / analysis-reuse-level=5 / scale-factor=0 / refine-intra=0 / refine-inter=0 / refine-mv=0 / no-limit-sao / ctu-info=0 / no-lowpass-dct / refine-mv-type=0 / copy-pic=1 / max-ausize-factor=1.0 / no-dynamic-refine / no-single-sei
Language : English
Default : Yes
Forced : No
Audio #1
ID : 2
Format : AC-3
Format/Info : Audio Coding 3
Commercial name : Dolby Digital
Codec ID : A_AC3
Duration : 59 min 29 s
Bit rate mode : Constant
Bit rate : 640 kb/s
Channel(s) : 6 channels
Channel layout : L R C LFE Ls Rs
Sampling rate : 48.0 kHz
Frame rate : 31.250 FPS (1536 SPF)
Bit depth : 16 bits
Compression mode : Lossy
Stream size : 272 MiB (5%)
Title : Surround 5.1
Language : English
Service kind : Complete Main
Default : No
Forced : No
Audio #2
ID : 3
Format : AC-3
Format/Info : Audio Coding 3
Commercial name : Dolby Digital
Codec ID : A_AC3
Duration : 59 min 29 s
Bit rate mode : Constant
Bit rate : 640 kb/s
Channel(s) : 1 channel
Channel layout : C
Sampling rate : 48.0 kHz
Frame rate : 31.250 FPS (1536 SPF)
Bit depth : 16 bits
Compression mode : Lossy
Stream size : 272 MiB (5%)
Title : Mono
Language : Japanese
Service kind : Complete Main
Default : No
Forced : No
Text #1
ID : 4
Format : PGS
Codec ID : S_HDMV/PGS
Codec ID/Info : Picture based subtitle format used on BDs/HD-DVDs
Duration : 1 min 20 s
Bit rate : 22.5 kb/s
Count of elements : 14
Stream size : 221 KiB (0%)
Language : English
Default : No
Forced : No
Text #2
ID : 5
Format : PGS
Codec ID : S_HDMV/PGS
Codec ID/Info : Picture based subtitle format used on BDs/HD-DVDs
Duration : 58 min 49 s
Bit rate : 22.0 kb/s
Count of elements : 736
Stream size : 9.26 MiB (0%)
Language : Japanese
Default : No
Forced : No
Menu
00:00:00.000 : en:Chapter 01
00:05:01.301 : en:Chapter 02
00:06:50.159 : en:Chapter 03
00:12:58.986 : en:Chapter 04
00:17:07.526 : en:Chapter 05
00:24:46.943 : en:Chapter 06
00:30:01.674 : en:Chapter 07
00:33:51.904 : en:Chapter 08
00:39:30.993 : en:Chapter 09
00:44:49.561 : en:Chapter 10
00:51:21.703 : en:Chapter 11
00:57:41.207 : en:Chapter 12

Source Information

Unique ID : 313063106829247520336446033394483650451 (0xEB85C2DD8392E7CA34F5CA405B68DF93)
Complete name : Dragon Ball Z The World's Strongest.mkv
Format : Matroska
Format version : Version 2
File size : 11.3 GiB
Duration : 59 min 29 s
Overall bit rate mode : Variable
Overall bit rate : 27.2 Mb/s
Movie name : Dragon Ball Z Movies 1 - 2
Encoded date : UTC 2018-12-26 09:56:02
Writing application : MakeMKV v1.14.2 win(x64-release)
Writing library : libmakemkv v1.14.2 (1.3.5/1.4.7) win(x64-release)
Video
ID : 1
ID in the original source medium : 4113 (0x1011)
Format : AVC
Format/Info : Advanced Video Codec
Format profile : [email protected]
Format settings : CABAC / 4 Ref Frames
Format settings, CABAC : Yes
Format settings, RefFrames : 4 frames
Codec ID : V_MPEG4/ISO/AVC
Duration : 59 min 29 s
Bit rate mode : Variable
Bit rate : 22.0 Mb/s
Maximum bit rate : 37.0 Mb/s
Width : 1 920 pixels
Height : 1 080 pixels
Display aspect ratio : 16:9
Frame rate mode : Constant
Frame rate : 23.976 (24000/1001) FPS
Standard : NTSC
Color space : YUV
Chroma subsampling : 4:2:0
Bit depth : 8 bits
Scan type : Progressive
Bits/(Pixel*Frame) : 0.442
Stream size : 9.14 GiB (81%)
Language : English
Default : No
Forced : No
Color range : Limited
Color primaries : BT.709
Transfer characteristics : BT.709
Matrix coefficients : BT.709
Original source medium : Blu-ray
Audio #1
ID : 2
ID in the original source medium : 4352 (0x1100)
Format : MLP FBA
Format/Info : Meridian Lossless Packing FBA
Commercial name : Dolby TrueHD
Codec ID : A_TRUEHD
Duration : 59 min 29 s
Bit rate mode : Variable
Bit rate : 1 564 kb/s
Maximum bit rate : 2 475 kb/s
Channel(s) : 6 channels
Channel layout : L R C LFE Ls Rs
Sampling rate : 48.0 kHz
Frame rate : 1 200.000 FPS (40 SPF)
Bit depth : 24 bits
Compression mode : Lossless
Stream size : 665 MiB (6%)
Title : Surround 5.1
Language : English
Default : Yes
Forced : No
Original source medium : Blu-ray
Audio #2
ID : 3
ID in the original source medium : 4352 (0x1100)
Format : AC-3
Format/Info : Audio Coding 3
Commercial name : Dolby Digital
Codec ID : A_AC3
Duration : 59 min 29 s
Bit rate mode : Constant
Bit rate : 640 kb/s
Channel(s) : 6 channels
Channel layout : L R C LFE Ls Rs
Sampling rate : 48.0 kHz
Frame rate : 31.250 FPS (1536 SPF)
Bit depth : 16 bits
Compression mode : Lossy
Stream size : 272 MiB (2%)
Title : Surround 5.1
Language : English
Service kind : Complete Main
Default : No
Forced : No
Original source medium : Blu-ray
Audio #3
ID : 4
ID in the original source medium : 4353 (0x1101)
Format : MLP FBA
Format/Info : Meridian Lossless Packing FBA
Commercial name : Dolby TrueHD
Codec ID : A_TRUEHD
Duration : 59 min 29 s
Bit rate mode : Variable
Bit rate : 1 685 kb/s
Maximum bit rate : 2 772 kb/s
Channel(s) : 6 channels
Channel layout : L R C LFE Ls Rs
Sampling rate : 48.0 kHz
Frame rate : 1 200.000 FPS (40 SPF)
Bit depth : 24 bits
Compression mode : Lossless
Stream size : 717 MiB (6%)
Title : Surround 5.1
Language : English
Default : No
Forced : No
Original source medium : Blu-ray
Audio #4
ID : 5
ID in the original source medium : 4353 (0x1101)
Format : AC-3
Format/Info : Audio Coding 3
Commercial name : Dolby Digital
Codec ID : A_AC3
Duration : 59 min 29 s
Bit rate mode : Constant
Bit rate : 640 kb/s
Channel(s) : 6 channels
Channel layout : L R C LFE Ls Rs
Sampling rate : 48.0 kHz
Frame rate : 31.250 FPS (1536 SPF)
Bit depth : 16 bits
Compression mode : Lossy
Stream size : 272 MiB (2%)
Title : Surround 5.1
Language : English
Service kind : Complete Main
Default : No
Forced : No
Original source medium : Blu-ray
Audio #5
ID : 6
ID in the original source medium : 4354 (0x1102)
Format : AC-3
Format/Info : Audio Coding 3
Commercial name : Dolby Digital
Codec ID : A_AC3
Duration : 59 min 29 s
Bit rate mode : Constant
Bit rate : 640 kb/s
Channel(s) : 1 channel
Channel layout : C
Sampling rate : 48.0 kHz
Frame rate : 31.250 FPS (1536 SPF)
Bit depth : 16 bits
Compression mode : Lossy
Stream size : 272 MiB (2%)
Title : Mono
Language : Japanese
Service kind : Complete Main
Default : No
Forced : No
Original source medium : Blu-ray
Text #1
ID : 7
ID in the original source medium : 4608 (0x1200)
Format : PGS
Codec ID : S_HDMV/PGS
Codec ID/Info : Picture based subtitle format used on BDs/HD-DVDs
Duration : 58 min 49 s
Bit rate : 22.0 kb/s
Count of elements : 736
Stream size : 9.26 MiB (0%)
Language : Japanese
Default : No
Forced : No
Original source medium : Blu-ray
Text #2
ID : 9
ID in the original source medium : 4609 (0x1201)
Format : PGS
Codec ID : S_HDMV/PGS
Codec ID/Info : Picture based subtitle format used on BDs/HD-DVDs
Duration : 1 min 20 s
Bit rate : 22.5 kb/s
Count of elements : 14
Stream size : 221 KiB (0%)
Language : English
Default : No
Forced : No
Original source medium : Blu-ray
Menu
00:00:00.000 : en:Chapter 01
00:05:01.301 : en:Chapter 02
00:06:50.159 : en:Chapter 03
00:12:58.986 : en:Chapter 04
00:17:07.526 : en:Chapter 05
00:24:46.943 : en:Chapter 06
00:30:01.674 : en:Chapter 07
00:33:51.904 : en:Chapter 08
00:39:30.993 : en:Chapter 09
00:44:49.561 : en:Chapter 10
00:51:21.703 : en:Chapter 11
00:57:41.207 : en:Chapter 12

.........................................................................................................................................

We have no issue with individuals posting or re-uploading our torrents on a platform we aren't on. However, if this is something you'd like to do, please do so in a 'as-is' format. We ask that you do not create a new torrent, include all descriptions you see above including the SEV logo, tags, notes and screenshots. If you'd like to become a permanent poster on a website we don't post to, feel free to get in contact with a Sublime Encoded Video member.

We are recruiting/training new members for SEV & seedbox providers as well as people to help out with subtitles.
As you already know, we deliver quality, so you know the standard.
If you're interested, feel free to contact any of the team members.

Images:
https://i.postimg.cc/P5qW5hC2/SEV-logo.png|https://i.postimg.cc/jqXmJw9z/dbztwss1.png|https://i.postimg.cc/Wb1KmpLx/dbztwss2.png|https://i.postimg.cc/yYpGLq7x/dbztwss3.png|https://i.postimg.cc/9Q4nSxfp/dbztwss4.png

Related at Dragon Ball Z - The World's Strongest 1080p BDRip x265 AC3 5 1 Goki :
© 2019 www.gphi.it | Contacts | DMCA | Privacy Policy