» » Black Clover Episode 1 and 2 1080p Dual Audio
Language: English
Size: 2.2 GB
Rating: 4.9
Category: Dual Audio
Votes: 072
Black Clover Episode 1 and 2 1080p Dual Audio
Files:
Black Clover [1080p] (Dual Audio)
  • Black Clover Episode 2 - The Boys' Promise [1080p] (Dual Audio).mkv (1.1 GB)
  • Black Clover Episode 1 - Asta and Yuno [1080p] (Dual Audio).mkv (1.1 GB)
  • 8c4e6e694f281821c40400cbedf4fd941507058031_full.jpg (277.2 KB)


Category: Anime - English-translated. B. 09 Audio ID : 2 Format : MLP FBA Format/Info : Meridian Lossless Packing FBA Commercial name : Dolby TrueHD Codec ID : A TRUEHD Duration : 23 min 51 s Bit rate mode : Variable Bit rate : 2 039 kb/s Maximum bit rate : 3 771 kb/s Channel(s) : 6 channels Channel layout : L R C LFE Ls Rs Sampling rate : 4. kHz Frame.

Watch Black Clover Episodes Online at Animegg. Choose an episode below and start watching Black Clover in Subbed & Dubbed HD now. Black Clover Episodes. Black Clover 1Episode 1SUBBEDSD.

Petit Clover Special . kv (12. MiB). There are no subtitles in 4,5,6,18,19 episodes. Is this a mistake?Is it as it should be?Or I'm wrong?

Petit Clover Special . 2019-01-19 14:04 UTC. Thanks! YGTorrent (uploader). Is this a mistake?Is it as it should be?Or I'm wrong? OriharaShinra. 2019-07-03 23:06 UTC. Are you still going to upload the other specials? Dark Mode: Toggle.

The first season of the Black Clover anime TV series was directed by Tatsuya Yoshihara and produced by Pierrot. The season primarily adapts the first nine volumes of Yūki Tabata's Black Clover manga in 51 episodes, with the exception of episode. The season primarily adapts the first nine volumes of Yūki Tabata's Black Clover manga in 51 episodes, with the exception of episode 13 (which has a separate storyline). It follows the first adventures of Asta and the Black Bulls in the fictional Clover Kingdom

You are currently watching Black Clover episode 1 in High Quality.

You are currently watching Black Clover episode 1 in High Quality. Support us by donating to keep the site up & running. We will always run free from pop ads and strive to provide the best streaming experience for everyone. Don't wanna see ads? Go Premium.

Thanks for downloading, Enjoy your Anime (o˘◡˘o)

General
Format : Matroska
Format version : Version 4 / Version 2
File size : 1.07 GiB
Duration : 23 min 55 s
Overall bit rate : 6 426 kb/s
Movie name : Black Clover Episode 1 - Asta and Yuno
Encoded date : UTC 2017-10-31 00:18:04
Writing application : mkvmerge v17.0.0 ('Be Ur Friend') 64-bit
Writing library : libebml v1.3.5 + libmatroska v1.4.8
Video
ID : 1
Format : AVC
Format/Info : Advanced Video Codec
Format profile : [email protected]
Format settings : CABAC / 4 Ref Frames
Format settings, CABAC : Yes
Format settings, RefFrames : 4 frames
Codec ID : V_MPEG4/ISO/AVC
Duration : 23 min 53 s
Bit rate : 5 984 kb/s
Width : 1 920 pixels
Height : 1 080 pixels
Display aspect ratio : 16:9
Frame rate mode : Constant
Frame rate : 23.976 (24000/1001) FPS
Color space : YUV
Chroma subsampling : 4:2:0
Bit depth : 8 bits
Scan type : Progressive
Bits/(Pixel*Frame) : 0.120
Stream size : 1 023 MiB (93%)
Writing library : x264 core 142
Encoding settings : cabac=1 / ref=4 / deblock=1:1:1 / analyse=0x3:0x113 / me=umh / subme=8 / psy=1 / psy_rd=0.40:0.00 / mixed_ref=1 / me_range=16 / chroma_me=1 / trellis=1 / 8x8dct=1 / cqm=0 / deadzone=21,11 / fast_pskip=1 / chroma_qp_offset=-2 / threads=12 / lookahead_threads=2 / sliced_threads=0 / nr=0 / decimate=1 / interlaced=0 / bluray_compat=0 / constrained_intra=0 / bframes=3 / b_pyramid=2 / b_adapt=2 / b_bias=0 / direct=3 / weightb=1 / open_gop=0 / weightp=2 / keyint=48 / keyint_min=24 / scenecut=40 / intra_refresh=0 / rc_lookahead=48 / rc=crf / mbtree=1 / crf=15.0 / qcomp=0.60 / qpmin=0 / qpmax=69 / qpstep=4 / vbv_maxrate=8000 / vbv_bufsize=12000 / crf_max=0.0 / nal_hrd=none / filler=0 / ip_ratio=1.40 / aq=1:0.60
Language : Japanese
Default : Yes
Forced : No
Audio #1
ID : 2
Format : AAC
Format/Info : Advanced Audio Codec
Format profile : LC
Codec ID : A_AAC-2
Duration : 23 min 53 s
Bit rate : 128 kb/s
Channel(s) : 2 channels
Channel positions : Front: L R
Sampling rate : 44.1 kHz
Frame rate : 43.066 FPS (1024 SPF)
Compression mode : Lossy
Delay relative to video : -83 ms
Stream size : 21.9 MiB (2%)
Title : Japanese
Language : Japanese
Default : No
Forced : No
Audio #2
ID : 7
Format : AAC
Format/Info : Advanced Audio Codec
Format profile : LC
Codec ID : A_AAC-2
Duration : 23 min 53 s
Bit rate : 317 kb/s
Channel(s) : 2 channels
Channel positions : Front: L R
Sampling rate : 48.0 kHz
Frame rate : 46.875 FPS (1024 SPF)
Compression mode : Lossy
Delay relative to video : -83 ms
Stream size : 54.3 MiB (5%)
Title : English
Language : English
Default : Yes
Forced : No
Text #1
ID : 3
Format : ASS
Codec ID : S_TEXT/ASS
Codec ID/Info : Advanced Sub Station Alpha
Duration : 23 min 42 s
Bit rate : 125 b/s
Count of elements : 335
Compression mode : Lossless
Stream size : 21.8 KiB (0%)
Title : [English (US)]
Language : English
Default : Yes
Forced : No
Text #2
ID : 4
Format : ASS
Codec ID : S_TEXT/ASS
Codec ID/Info : Advanced Sub Station Alpha
Duration : 23 min 42 s
Bit rate : 157 b/s
Count of elements : 331
Compression mode : Lossless
Stream size : 27.4 KiB (0%)
Title : [Arabic]
Language : Arabic
Default : No
Forced : No
Text #3
ID : 5
Format : ASS
Codec ID : S_TEXT/ASS
Codec ID/Info : Advanced Sub Station Alpha
Duration : 23 min 42 s
Bit rate : 139 b/s
Count of elements : 349
Compression mode : Lossless
Stream size : 24.3 KiB (0%)
Title : [Italiano]
Language : Italian
Default : No
Forced : No
Text #4
ID : 6
Format : ASS
Codec ID : S_TEXT/ASS
Codec ID/Info : Advanced Sub Station Alpha
Duration : 23 min 41 s
Bit rate : 144 b/s
Count of elements : 427
Compression mode : Lossless
Stream size : 25.0 KiB (0%)
Title : [Deutsch]
Language : German
Default : No
Forced : No
Custom Dual Audio of Black Clover Episode 01 and 02
comment on Quality and Audio timing this is my first torrent
Simulcast on Tuesdays 6:25am EDT
SimulDub on Sundays 4:00 pm Eastern.

Images:

Related at Black Clover Episode 1 and 2 :
© 2019 www.gphi.it | Contacts | DMCA | Privacy Policy