» » Ghost in the Shell Arise - Border 4 - Ghost Stands Alone 2014 1080p BDRip x265 10bit TrueHD 5.1 - Goki
Language: English
Size: 4.4 GB
Rating: 4.0
Category: Dual Audio
Votes: 538
Ghost in the Shell Arise - Border 4 - Ghost Stands Alone 2014 1080p BDRip x265 10bit TrueHD 5.1 - Goki
Files:
Ghost in the Shell Arise - Border 4 - Ghost Stands Alone (2014) (1080p BDRip x265 10bit TrueHD 5.1 - Goki)
  • Ghost in the Shell Arise - Border 4 - Ghost Stands Alone (2014) (1080p BDRip x265 10bit TrueHD 5.1 - Goki).mkv (4.4 GB)
  • Ghost in the Shell Arise - Border 4 - Ghost Stands Alone (2014) (1080p BDRip x265 10bit TrueHD 5.1 - Goki).nfo (6.9 KB)
  • Ghost in the Shell Arise - Border 4 - Ghost Stands Alone (2014) (1080p BDRip x265 10bit TrueHD 5.1 - Goki)-clearlogo.png (87.4 KB)
  • Ghost in the Shell Arise - Border 4 - Ghost Stands Alone (2014) (1080p BDRip x265 10bit TrueHD 5.1 - Goki)-fanart.jpg (143.2 KB)
  • Ghost in the Shell Arise - Border 4 - Ghost Stands Alone (2014) (1080p BDRip x265 10bit TrueHD 5.1 - Goki)-logo.png (87.4 KB)
  • Ghost in the Shell Arise - Border 4 - Ghost Stands Alone (2014) (1080p BDRip x265 10bit TrueHD 5.1 - Goki)-poster.jpg (66.7 KB)


Worth a watch if you are a Ghost in the Shell fa.

Story The story quite honestly feels like you have seen it before from Ghost in the Shell, not deviating from the ghost hacking concept that is present all throughout the franchise. However, despite staying in the "comfort zone" of the franchise it is still a fascinating universe being portrayed, and so it is still intriguing to follow Section 9 as they unravel a case even if the story concept isn't as unique as it once was when it was in the franchise.

mkv (. GB). Description. 0 ('Slave To Your Mind') 64bit Writing library : libebml. Video ID : 1 Format : HEVC Format/Info : High Efficiency Video Coding Format profile : Main Codec ID : V MPEGH/ISO/HEVC Duration : 58 min 52 s Bit rate : 3 641.

the suppression of the situation to their ghosts and aims for their own justice. Ep 10. Ore wo Suki nano wa Omae dake ka yo.

An independent offensive unit led by Makoto Kusanagi entrusts the suppression of the situation to their ghosts and aims for their own justice. Below the surface of the incident, lies the "tin girl" Emma and the "scarecrow man" Burinda Junior. As Kusanagi deals with the incident, she draws near to what those two ghosts were seeking. SUB.

dredg 2s, Bali lombok 3s, title: Charlaine Harris Shakespeare's Champion 3s, 1080p Blacklist S07E03 3s, nikki jade taylor 3s, flac 2s, title: Beauty and the Geek Australia S06E08 1s, title: James . Corey The Butcher of Anderson St 1s, WHO AM I ENGLISH 1s, pirates.

Pipto : Hi Im looking for the Minion short in 1080p released with The Grinch called Santa's Little Helpers. Emcee : Max do you have tagalog movie called "alone together" staring liza soberano and enrique gil?

Pipto : Hi Im looking for the Minion short in 1080p released with The Grinch called Santa's Little Helpers. Emcee : Max do you have tagalog movie called "alone together" staring liza soberano and enrique gil? Thanks.

Tensions are rising in New Port City as demonstrations are held concerning the interests of foreign cartels. This leads to a shooting incident involving riot police

Tensions are rising in New Port City as demonstrations are held concerning the interests of foreign cartels. This leads to a shooting incident involving riot police. It all started with a cyberbrain infection released by the terrorist "Fire Starter. An independent offensive unit led by Makoto Kusanagi entrusts the suppression of the situation to their ghosts and aims for their own justice

Ghost in the Shell: Arise, also known in Japan as Mobile Armored Riot Police: Arise (Japanese: 攻殻機動隊 ARISE Hepburn: Kōkaku Kidōtai Araizu), is an original video animation and television series that serves as a re-imagining of Masamune Shirow's . .

Ghost in the Shell: Arise, also known in Japan as Mobile Armored Riot Police: Arise (Japanese: 攻殻機動隊 ARISE Hepburn: Kōkaku Kidōtai Araizu), is an original video animation and television series that serves as a re-imagining of Masamune Shirow's Ghost in the Shell. The series features new character designs and is directed by Kazuchika Kise, screenplay by Tow Ubukata, and music by Cornelius.

Stands Alone 2014 720p B torrent or any other torrent from the Video HD - Movies. Details for this torrent.

Details for this torrent. 6 channels Embeded Subs.



Ghost in the Shell Arise - Border 4 - Ghost Stands Alone IMDB

Screenshots





Media Information

Unique ID : 183004927114936775308817586448196570768 (0x89AD77876BB395E199B58C7F0C9E0E90)
Complete name : Ghost in the Shell Arise - Border 4 - Ghost Stands Alone (1080p BDRip x265 10bit TrueHD 5.1 - Goki).mkv
Format : Matroska
Format version : Version 4
File size : 4.36 GiB
Duration : 58 min 52 s
Overall bit rate mode : Variable
Overall bit rate : 10.6 Mb/s
Movie name : Ghost in the Shell Arise - Border 4 - Ghost Stands Alone (1080p BDRip x265 10bit TrueHD 5.1 - Goki).mkv
Encoded date : UTC 2019-10-18 06:00:54
Writing application : mkvmerge v28.2.0 ('The Awakening') 64-bit
Writing library : libebml v1.3.6 + libmatroska v1.4.9
Video
ID : 1
Format : HEVC
Format/Info : High Efficiency Video Coding
Format profile : Main [email protected]@Main
Codec ID : V_MPEGH/ISO/HEVC
Duration : 58 min 52 s
Bit rate : 5 325 kb/s
Width : 1 920 pixels
Height : 1 080 pixels
Display aspect ratio : 16:9
Frame rate mode : Constant
Frame rate : 23.976 (24000/1001) FPS
Color space : YUV
Chroma subsampling : 4:2:0
Bit depth : 10 bits
Bits/(Pixel*Frame) : 0.107
Stream size : 2.19 GiB (50%)
Writing library : x265 2.9+8-27d8424c799d:[Windows][MSVC 1915][64 bit] 10bit
Encoding settings : cpuid=1111039 / frame-threads=2 / numa-pools=4 / wpp / no-pmode / no-pme / no-psnr / no-ssim / log-level=2 / input-csp=1 / input-res=1920x1080 / interlace=0 / total-frames=0 / level-idc=0 / high-tier=1 / uhd-bd=0 / ref=4 / no-allow-non-conformance / no-repeat-headers / annexb / no-aud / no-hrd / info / hash=0 / no-temporal-layers / open-gop / min-keyint=23 / keyint=250 / gop-lookahead=0 / bframes=8 / b-adapt=2 / b-pyramid / bframe-bias=0 / rc-lookahead=100 / lookahead-slices=4 / scenecut=40 / radl=0 / no-intra-refresh / ctu=64 / min-cu-size=8 / no-rect / no-amp / max-tu-size=32 / tu-inter-depth=2 / tu-intra-depth=2 / limit-tu=4 / rdoq-level=2 / dynamic-rd=0.00 / no-ssim-rd / signhide / no-tskip / nr-intra=0 / nr-inter=0 / no-constrained-intra / no-strong-intra-smoothing / max-merge=3 / limit-refs=2 / limit-modes / me=3 / subme=5 / merange=57 / temporal-mvp / weightp / weightb / no-analyze-src-pics / deblock=0:0 / sao / no-sao-non-deblock / rd=6 / no-early-skip / rskip / no-fast-intra / no-tskip-fast / no-cu-lossless / b-intra / no-splitrd-skip / rdpenalty=0 / psy-rd=1.30 / psy-rdoq=2.00 / no-rd-refine / no-lossless / cbqpoffs=0 / crqpoffs=0 / rc=crf / crf=18.0 / qcomp=0.60 / qpstep=4 / stats-write=0 / stats-read=0 / ipratio=1.40 / pbratio=1.30 / aq-mode=2 / aq-strength=1.10 / cutree / zone-count=0 / no-strict-cbr / qg-size=32 / no-rc-grain / qpmax=69 / qpmin=0 / no-const-vbv / sar=1 / overscan=0 / videoformat=5 / range=0 / colorprim=2 / transfer=2 / colormatrix=2 / chromaloc=0 / display-window=0 / max-cll=0,0 / min-luma=0 / max-luma=1023 / log2-max-poc-lsb=8 / vui-timing-info / vui-hrd-info / slices=1 / no-opt-qp-pps / no-opt-ref-list-length-pps / no-multi-pass-opt-rps / scenecut-bias=0.05 / no-opt-cu-delta-qp / no-aq-motion / no-hdr / no-hdr-opt / no-dhdr10-opt / no-idr-recovery-sei / analysis-reuse-level=5 / scale-factor=0 / refine-intra=0 / refine-inter=0 / refine-mv=0 / no-limit-sao / ctu-info=0 / no-lowpass-dct / refine-mv-type=0 / copy-pic=1 / max-ausize-factor=1.0 / no-dynamic-refine / no-single-sei
Language : English
Default : Yes
Forced : No
Audio #1
ID : 2
Format : MLP FBA
Format/Info : Meridian Lossless Packing FBA
Commercial name : Dolby TrueHD
Codec ID : A_TRUEHD
Duration : 58 min 52 s
Bit rate mode : Variable
Bit rate : 2 368 kb/s
Maximum bit rate : 4 083 kb/s
Channel(s) : 6 channels
Channel layout : L R C LFE Ls Rs
Sampling rate : 48.0 kHz
Frame rate : 1 200.000 FPS (40 SPF)
Compression mode : Lossless
Stream size : 997 MiB (22%)
Title : Surround 5.1
Language : English
Default : Yes
Forced : No
Audio #2
ID : 3
Format : MLP FBA
Format/Info : Meridian Lossless Packing FBA
Commercial name : Dolby TrueHD
Codec ID : A_TRUEHD
Duration : 58 min 52 s
Bit rate mode : Variable
Bit rate : 2 725 kb/s
Maximum bit rate : 4 782 kb/s
Channel(s) : 6 channels
Channel layout : L R C LFE Ls Rs
Sampling rate : 48.0 kHz
Frame rate : 1 200.000 FPS (40 SPF)
Compression mode : Lossless
Stream size : 1.12 GiB (26%)
Title : Surround 5.1
Language : Japanese
Default : No
Forced : No
Text #1
ID : 4
Format : PGS
Codec ID : S_HDMV/PGS
Codec ID/Info : Picture based subtitle format used on BDs/HD-DVDs
Duration : 58 min 17 s
Bit rate : 1 365 b/s
Count of elements : 77
Stream size : 583 KiB (0%)
Title : Sign's and Text Only
Language : English
Default : Yes
Forced : No
Text #2
ID : 5
Format : PGS
Codec ID : S_HDMV/PGS
Codec ID/Info : Picture based subtitle format used on BDs/HD-DVDs
Duration : 58 min 22 s
Bit rate : 42.0 kb/s
Count of elements : 1333
Stream size : 17.5 MiB (0%)
Language : English
Default : No
Forced : No
Menu
00:00:00.000 : en:Chapter 01
00:04:06.746 : en:Chapter 02
00:05:08.808 : en:Chapter 03
00:21:45.971 : en:Chapter 04
00:40:03.484 : en:Chapter 05
00:53:54.314 : en:Chapter 06
00:58:42.560 : en:Chapter 07

Source Information

Unique ID : 54184340365587302479294195771415955944 (0x28C3863CA2343F953F25BE75998789E8)
Complete name : Ghost in the Shell Arise - Alternative Architecture S00E05 'Ghost in the Shell Arise - Border 4 Ghost Stands Alone.mkv
Format : Matroska
Format version : Version 2
File size : 12.3 GiB
Duration : 58 min 52 s
Overall bit rate mode : Variable
Overall bit rate : 30.0 Mb/s
Encoded date : UTC 2018-04-28 06:01:20
Writing application : MakeMKV v1.12.0 win(x64-release)
Writing library : libmakemkv v1.12.0 (1.3.5/1.4.7) win(x64-release)
Video
ID : 1
ID in the original source medium : 4113 (0x1011)
Format : AVC
Format/Info : Advanced Video Codec
Format profile : [email protected]
Format settings : CABAC / 4 Ref Frames
Format settings, CABAC : Yes
Format settings, Reference frames : 4 frames
Codec ID : V_MPEG4/ISO/AVC
Duration : 58 min 52 s
Bit rate mode : Variable
Bit rate : 23.9 Mb/s
Maximum bit rate : 38.0 Mb/s
Width : 1 920 pixels
Height : 1 080 pixels
Display aspect ratio : 16:9
Frame rate mode : Constant
Frame rate : 23.976 (24000/1001) FPS
Color space : YUV
Chroma subsampling : 4:2:0
Bit depth : 8 bits
Scan type : Progressive
Bits/(Pixel*Frame) : 0.481
Stream size : 9.84 GiB (80%)
Language : English
Default : No
Forced : No
Original source medium : Blu-ray
Audio #1
ID : 2
ID in the original source medium : 4352 (0x1100)
Format : MLP FBA
Format/Info : Meridian Lossless Packing FBA
Commercial name : Dolby TrueHD
Codec ID : A_TRUEHD
Duration : 58 min 52 s
Bit rate mode : Variable
Bit rate : 2 368 kb/s
Maximum bit rate : 4 083 kb/s
Channel(s) : 6 channels
Channel layout : L R C LFE Ls Rs
Sampling rate : 48.0 kHz
Frame rate : 1 200.000 FPS (40 SPF)
Bit depth : 24 bits
Compression mode : Lossless
Stream size : 997 MiB (8%)
Title : Surround 5.1
Language : English
Default : Yes
Forced : No
Original source medium : Blu-ray
Audio #2
ID : 3
ID in the original source medium : 4352 (0x1100)
Format : AC-3
Format/Info : Audio Coding 3
Commercial name : Dolby Digital
Codec ID : A_AC3
Duration : 58 min 52 s
Bit rate mode : Constant
Bit rate : 448 kb/s
Channel(s) : 6 channels
Channel layout : L R C LFE Ls Rs
Sampling rate : 48.0 kHz
Frame rate : 31.250 FPS (1536 SPF)
Compression mode : Lossy
Stream size : 189 MiB (1%)
Title : Surround 5.1
Language : English
Service kind : Complete Main
Default : No
Forced : No
Original source medium : Blu-ray
Audio #3
ID : 4
ID in the original source medium : 4353 (0x1101)
Format : MLP FBA
Format/Info : Meridian Lossless Packing FBA
Commercial name : Dolby TrueHD
Codec ID : A_TRUEHD
Duration : 58 min 52 s
Bit rate mode : Variable
Bit rate : 2 725 kb/s
Maximum bit rate : 4 782 kb/s
Channel(s) : 6 channels
Channel layout : L R C LFE Ls Rs
Sampling rate : 48.0 kHz
Frame rate : 1 200.000 FPS (40 SPF)
Bit depth : 24 bits
Compression mode : Lossless
Stream size : 1.12 GiB (9%)
Title : Surround 5.1
Language : Japanese
Default : No
Forced : No
Original source medium : Blu-ray
Audio #4
ID : 5
ID in the original source medium : 4353 (0x1101)
Format : AC-3
Format/Info : Audio Coding 3
Commercial name : Dolby Digital
Codec ID : A_AC3
Duration : 58 min 52 s
Bit rate mode : Constant
Bit rate : 448 kb/s
Channel(s) : 6 channels
Channel layout : L R C LFE Ls Rs
Sampling rate : 48.0 kHz
Frame rate : 31.250 FPS (1536 SPF)
Compression mode : Lossy
Stream size : 189 MiB (1%)
Title : Surround 5.1
Language : Japanese
Service kind : Complete Main
Default : No
Forced : No
Original source medium : Blu-ray
Text #1
ID : 6
ID in the original source medium : 4608 (0x1200)
Format : PGS
Codec ID : S_HDMV/PGS
Codec ID/Info : Picture based subtitle format used on BDs/HD-DVDs
Duration : 58 min 22 s
Bit rate : 42.0 kb/s
Count of elements : 1333
Stream size : 17.5 MiB (0%)
Language : English
Default : No
Forced : No
Original source medium : Blu-ray
Text #2
ID : 8
ID in the original source medium : 4609 (0x1201)
Format : PGS
Codec ID : S_HDMV/PGS
Codec ID/Info : Picture based subtitle format used on BDs/HD-DVDs
Duration : 58 min 17 s
Bit rate : 1 365 b/s
Count of elements : 77
Stream size : 583 KiB (0%)
Title : Signs & Songs
Language : English
Default : Yes
Forced : No
Original source medium : Blu-ray
Menu
00:00:00.000 : en:Chapter 01
00:04:06.746 : en:Chapter 02
00:05:08.808 : en:Chapter 03
00:21:45.971 : en:Chapter 04
00:40:03.484 : en:Chapter 05
00:53:54.314 : en:Chapter 06
00:58:42.560 : en:Chapter 07

.........................................................................................................................................

Images:
https://i.postimg.cc/rFvtHwWJ/Goki2.png|http://2.bp.blogspot.com/-rjJgbglOvmA/VPrEsCPEjSI/AAAAAAAABeQ/1JG0QEoyDdM/s1600/GITS%2BArise%2BFilm.jpg|https://i.postimg.cc/HkL1SXTs/ghostitsab4a.png|https://i.postimg.cc/MpHg0wYn/ghostitsab4b.png|https://i.postimg.cc/bNz7JkDH/ghostitsab4c.png|https://i.postimg.cc/7YmpThSv/ghostitsab4d.png

Related at Ghost in the Shell Arise - Border 4 - Ghost Stands Alone :
© 2019 www.gphi.it | Contacts | DMCA | Privacy Policy