» » Steins;Gate 0 1080p x265 HEVC 10bit BD Dual Audio AAC 2018
Language: English
Size: 8.9 GB
Rating: 4.1
Category: Dual Audio
Votes: 766
Steins;Gate 0 1080p x265 HEVC 10bit BD Dual Audio AAC 2018
Files:
Steins Gate 0 [1080p x265 HEVC 10bit BD Dual Audio AAC] [Prof]
  • [Prof] Episode 17 - Altair of the Hyperbolic Plane - Beltrami Pseudosphere.mkv (436.9 MB)
  • [Prof] Episode 02 - Epigraph of the Closed Curve - Closed Epigraph.mkv (391.5 MB)
  • [Prof] Episode 03 - Protocol of the Two-sided Gospel - X-day Protocol.mkv (370.1 MB)
  • [Prof] Episode 04 - Solitude of the Mournful Flow - A Stray Sheep.mkv (360.1 MB)
  • [Prof] Episode 05 - Solitude of the Astigmatism - Entangled Sheep.mkv (360.8 MB)
  • [Prof] Episode 06 - Eclipse of Orbital Ordering - The Orbital Eclipse.mkv (369.9 MB)
  • [Prof] Episode 07 - Eclipse of Vibronic Transition - Vibronic Transition.mkv (376.7 MB)
  • [Prof] Episode 08 - Dual of Antinomy - Antinomic Dual.mkv (321.4 MB)
  • [Prof] Episode 09 - Pandora of Eternal Return - Pandora`s Box.mkv (358.7 MB)
  • [Prof] Episode 10 - Pandora of Provable Existence - Forbidden Cubicle.mkv (372.9 MB)
  • [Prof] Episode 11 - Pandora of Forgotten Existence - Sealed Reliquary.mkv (364.8 MB)
  • [Prof] Episode 12 - Mother Goose of Mutual Recursion - Recursive Mother Goose.mkv (341.9 MB)
  • [Prof] Episode 13 - Mother Goose of Diffractive Recitativo - Diffraction Mother Goose.mkv (374.9 MB)
  • [Prof] Episode 14 - Recognition of the Elastic Limit - Presage or Recognize.mkv (366.2 MB)
  • [Prof] Episode 15 - Recognition of the Asymptotic Line - Recognize Asymptote.mkv (423.4 MB)
  • [Prof] Episode 16 - Altair of the Point at Infinity - Vega and Altair.mkv (377.8 MB)
  • [Prof] Episode 01 - Missing Link of the Annihilator - Absolute Zero.mkv (371.5 MB)
  • [Prof] Episode 18 - Altair of Translational Symmetry - Translational Symmetry.mkv (416.1 MB)
  • [Prof] Episode 19 - Altair of the Cyclic Coordinate - Time-leap Machine.mkv (421.2 MB)
  • [Prof] Episode 20 - Rinascimento of the Unwavering Promise - Promised Rinascimento.mkv (386.1 MB)
  • [Prof] Episode 21 - Rinascimento of Image Formation - Return of Phoenix.mkv (380.1 MB)
  • [Prof] Episode 22 - Rinascimento of Projection - Project Amadeus.mkv (410.9 MB)
  • [Prof] Episode 23 - Arclight of the Point at Infinity - Arclight of the Sky.mkv (409.7 MB)
  • [Prof] Special - Valentine's of Crystal Polymorphism - Bittersweet Intermedio.mkv (383.5 MB)


Episode 10 - Pandora of Provable Existence - Forbidden Cubicle.

Episode 10 - Pandora of Provable Existence - Forbidden Cubicle.

Steins;Gate 0 - 10 (Dual Audio 10bit BD1080p x265). Steins;Gate 0 - 11 (Dual Audio 10bit BD1080p x265). Steins;Gate 0 - 12 (Dual Audio 10bit BD1080p x265). Steins;Gate 0 - 13 (Dual Audio 10bit BD1080p x265). Steins;Gate 0 - 14 (Dual Audio 10bit BD1080p x265). Steins;Gate 0 - 15 (Dual Audio 10bit BD1080p x265).

cc/3465krzk)File Container: MKVVideo Format: HEVC, x265 (crf 19 on slow)Video Resolution: 1920 x 1080Bit Depth: 10 bitAudio Format: AAC-LCAudio Track 1: English . (576 kb/s)Audio Track 2: Japanese . (576 kb/s)Subtitles: EnglishSource:Freedom (2006) .

Source : A. ternitys.

Audio ID : 2 Format : AAC Format/Info : Advanced Audio Codec Format profile : LC Codec ID : A AAC Duration : 23 min 56 s Bit rate : 233 kb/s Channel(s) : 6 channels Channel positions : Front: L C R, Side: L R, LF. .

Audio ID : 2 Format : AAC Format/Info : Advanced Audio Codec Format profile : LC Codec ID : A AAC Duration : 23 min 56 s Bit rate : 233 kb/s Channel(s) : 6 channels Channel positions : Front: L C R, Side: L R, LFE Sampling rate : 4. kHz Frame rate : 4. 75 FPS (1024 spf) Compression mode : Lossy Delay relative to video : 9 m.

Steins Gate 1080p x265 10bit Eng Dub (1. 3 GB). ▼ show more 10 files. Episode 23 - Open the Steins Gate. 60. 5 MB. Episode 02 - Time Travel Paranoia. 2 2018090500 Writing library : Lavf57.

05 - Shape of the Soul – Enter the Ultimate Meister Stein. 울이터 Soul Eater BD 1080p x265 HEVC AAC 10bit. mkv- 7. M. 07 - Black-blooded Terror – There's a Weapon inside Crona. 15 - The Soul Eating Black Dragon – Scaredy-cat Liz and Her Merry Friends. 1. G. 더빙 소울이터 1-51 完 640x360.

Video Source: AkihitoSubs/Moozzi2 1080p Encode (BD) Video Codec: HEVC x265 10-bit Resolution: 1920x1080 Frame rate: 2. 76 fps. Audio Source: AkihitoSubs/Moozzi2 (BD) Audio Track 1 (Default): 2Ch Japanese AC3 @ 48000Hz. Subtitles Source: AkihitoSubs (English). cephyx, May 25, 2019. Eryk814, GiulioG10, saintcarl and 5 others like this.



Synopsis

The eccentric, self-proclaimed mad scientist Rintarou Okabe has become a shell of his former self. Depressed and traumatized after failing to rescue his friend Makise Kurisu, he has decided to forsake his mad scientist alter ego and live as an ordinary college student. Surrounded by friends who know little of his time travel experiences, Okabe spends his days trying to forget the horrors of his adventures alone.
While working as a receptionist at a college technology forum, Okabe meets the short, spunky Maho Hiyajo, who
later turns out to be the interpreter at the forum's presentation, conducted by Professor Alexis Leskinen. In front of a stunned crowd, Alexis and Maho unveil Amadeus—a revolutionary AI capable of storing a person's memories and creating a perfect simulation of that person complete with their personality and quirks. Meeting with Maho and Alexis after the presentation, Okabe learns that the two were Kurisu's colleagues in university, and that they have simulated her in Amadeus. Hired by Alexis to research the simulation's behavior, Okabe is given the chance to interact with the shadow of a long-lost dear friend. Dangerously tangled in the past, Okabe must face the harsh reality and carefully maneuver around the disastrous consequences that come with disturbing the natural flow of time.
[Written by MAL Rewrite]

Alternative Titles

Synonyms: Steins Gate Zero
Japanese: シュタインズ・ゲート ゼロ

Information

Type: TV
Episodes: 23
Status: Finished Airing
Aired: Apr 12, 2018 to Sep 27, 2018
Premiered: Spring 2018
Broadcast: Thursdays at 01:35 (JST)
Producers: Frontier Works, Media Factory, Kadokawa Shoten, Movic
Licensors: Funimation
Studios: White Fox
Source: Visual novel
Genres: Sci-Fi, Thriller
Duration: 23 min. per ep.
Rating: PG-13 - Teens 13 or older
MAL



Format                                   : Matroska
Format version                           : Version 4
File size                                : 371 MiB
Duration                                 : 23 min 57 s
Overall bit rate                         : 2 169 kb/s
Movie name                               : Steinsgate0_P1D1
Encoded date                             : UTC 2019-08-08 20:54:05
Writing application                      : mkvmerge v35.0.0 ('All The Love In The World') 64-bit
Writing library                          : libebml v1.3.9 + libmatroska v1.5.2
Writing frontend                         : StaxRip v2.0.0.0
Video
ID                                       : 1
Format                                   : HEVC
Format/Info                              : High Efficiency Video Coding
Format profile                           : Main [email protected]@Main
Codec ID                                 : V_MPEGH/ISO/HEVC
Duration                                 : 23 min 57 s
Bit rate                                 : 1 269 kb/s
Width                                    : 1 920 pixels
Height                                   : 1 080 pixels
Display aspect ratio                     : 16:9
Frame rate mode                          : Constant
Frame rate                               : 23.976 (24000/1001) FPS
Color space                              : YUV
Chroma subsampling                       : 4:2:0
Bit depth                                : 10 bits
Bits/(Pixel*Frame)                       : 0.026
Stream size                              : 217 MiB (59%)
Writing library                          : x265 2.9+2-7e978ed93d60:[Windows][GCC 8.2.0][64 bit] 10bit
Encoding settings                        : cpuid=1111039 / frame-threads=2 / numa-pools=4 / wpp / no-pmode / no-pme / no-psnr / no-ssim / log-level=2 / input-csp=1 / input-res=1920x1080 / interlace=0 / total-frames=34454 / level-idc=0 / high-tier=1 / uhd-bd=0 / ref=4 / no-allow-non-conformance / no-repeat-headers / annexb / no-aud / no-hrd / info / hash=0 / no-temporal-layers / open-gop / min-keyint=23 / keyint=250 / gop-lookahead=0 / bframes=8 / b-adapt=2 / b-pyramid / bframe-bias=0 / rc-lookahead=80 / lookahead-slices=6 / scenecut=40 / radl=0 / no-intra-refresh / ctu=64 / min-cu-size=8 / rect / no-amp / max-tu-size=32 / tu-inter-depth=1 / tu-intra-depth=1 / limit-tu=0 / rdoq-level=2 / dynamic-rd=0.00 / no-ssim-rd / signhide / no-tskip / nr-intra=0 / nr-inter=0 / no-constrained-intra / strong-intra-smoothing / max-merge=3 / limit-refs=3 / limit-modes / me=3 / subme=3 / merange=57 / temporal-mvp / weightp / no-weightb / no-analyze-src-pics / deblock=0:0 / sao / no-sao-non-deblock / rd=4 / no-early-skip / rskip / no-fast-intra / no-tskip-fast / no-cu-lossless / no-b-intra / no-splitrd-skip / rdpenalty=0 / psy-rd=2.00 / psy-rdoq=1.00 / no-rd-refine / no-lossless / cbqpoffs=0 / crqpoffs=0 / rc=crf / crf=19.0 / qcomp=0.60 / qpstep=4 / stats-write=0 / stats-read=0 / ipratio=1.40 / pbratio=1.30 / aq-mode=1 / aq-strength=1.00 / cutree / zone-count=0 / no-strict-cbr / qg-size=32 / no-rc-grain / qpmax=69 / qpmin=0 / no-const-vbv / sar=0 / overscan=0 / videoformat=5 / range=0 / colorprim=2 / transfer=2 / colormatrix=2 / chromaloc=0 / display-window=0 / max-cll=0,0 / min-luma=0 / max-luma=1023 / log2-max-poc-lsb=8 / vui-timing-info / vui-hrd-info / slices=1 / no-opt-qp-pps / no-opt-ref-list-length-pps / no-multi-pass-opt-rps / scenecut-bias=0.00 / no-opt-cu-delta-qp / no-aq-motion / no-hdr / no-hdr-opt / no-dhdr10-opt / no-idr-recovery-sei / analysis-reuse-level=5 / scale-factor=0 / refine-intra=0 / refine-inter=0 / refine-mv=0 / no-limit-sao / ctu-info=0 / no-lowpass-dct / refine-mv-type=0 / copy-pic=1 / max-ausize-factor=1.0 / no-dynamic-refine / no-single-sei
Default                                  : Yes
Forced                                   : No
Audio #1
ID                                       : 4
Format                                   : AAC LC
Format/Info                              : Advanced Audio Codec Low Complexity
Codec ID                                 : A_AAC-2
Duration                                 : 23 min 57 s
Bit rate                                 : 608 kb/s
Channel(s)                               : 6 channels
Channel layout                           : C L R Ls Rs LFE
Sampling rate                            : 48.0 kHz
Frame rate                               : 46.875 FPS (1024 SPF)
Compression mode                         : Lossy
Delay relative to video                  : 20 ms
Stream size                              : 104 MiB (28%)
Language                                 : English
Default                                  : Yes
Forced                                   : No
Audio #2
ID                                       : 5
Format                                   : AAC LC
Format/Info                              : Advanced Audio Codec Low Complexity
Codec ID                                 : A_AAC-2
Duration                                 : 23 min 57 s
Bit rate                                 : 265 kb/s
Channel(s)                               : 2 channels
Channel layout                           : L R
Sampling rate                            : 48.0 kHz
Frame rate                               : 46.875 FPS (1024 SPF)
Compression mode                         : Lossy
Delay relative to video                  : 20 ms
Stream size                              : 45.5 MiB (12%)
Language                                 : Japanese
Default                                  : No
Forced                                   : No
Text #1
ID                                       : 2
Format                                   : PGS
Muxing mode                              : zlib
Codec ID                                 : S_HDMV/PGS
Codec ID/Info                            : Picture based subtitle format used on BDs/HD-DVDs
Duration                                 : 23 min 16 s
Bit rate                                 : 54.6 kb/s
Count of elements                        : 739
Stream size                              : 9.09 MiB (2%)
Language                                 : English
Default                                  : No
Forced                                   : No
Text #2
ID                                       : 3
Format                                   : PGS
Muxing mode                              : zlib
Codec ID                                 : S_HDMV/PGS
Codec ID/Info                            : Picture based subtitle format used on BDs/HD-DVDs
Duration                                 : 22 min 7 s
Bit rate                                 : 14.0 kb/s
Count of elements                        : 48
Stream size                              : 2.21 MiB (1%)
Language                                 : English
Default                                  : Yes
Forced                                   : No
Menu
00:00:00.000                             : en:Chapter 01
00:00:47.047                             : en:Chapter 02
00:10:37.011                             : en:Chapter 03
00:22:17.336                             : en:Chapter 04
00:23:41.002                             : en:Chapter 05
Source:

Images:
https://i.postimg.cc/wj1rGtfy/93520l.jpg|https://i.postimg.cc/507D6wj3/Prof-Episode-01-Missing-Link-of-the-Annihilator-Absolute-Z.png|https://i.postimg.cc/J7QSDCHn/Prof-Episode-02-Epigraph-of-the-Closed-Curve-Closed-Epigra.png|https://i.postimg.cc/Z50kzsRq/Prof-Episode-03-Protocol-of-the-Two-sided-Gospel-X-day-Pro.png|https://i.postimg.cc/k4mhGTnK/91-Nghix-w0-L-SY445.jpg

Related at Steins;Gate 0 :
Comments 1
Kemath
Thanks prof ...Best Encode of ;0 ...
© 2019 www.gphi.it | Contacts | DMCA | Privacy Policy