» » Renai Boukun Love Tyrant Kiyome Dual Audio 10bit BD1080p H264-x264
Language: English
Size: 20.2 GB
Rating: 4.4
Category: Dual Audio
Votes: 968
Renai Boukun Love Tyrant Kiyome Dual Audio 10bit BD1080p H264-x264
Files:
[Kiyome] Renai Boukun Love Tyrant [Dual Audio 10bit BD1080p] [H264-x264]
  • Love Tyrant S01E01.mkv (1.6 GB)
  • Love Tyrant S01E02.mkv (1.6 GB)
  • Love Tyrant S01E03.mkv (1.7 GB)
  • Love Tyrant S01E04.mkv (1.7 GB)
  • Love Tyrant S01E05.mkv (1.6 GB)
  • Love Tyrant S01E06.mkv (1.7 GB)
  • Love Tyrant S01E07.mkv (1.7 GB)
  • Love Tyrant S01E08.mkv (1.7 GB)
  • Love Tyrant S01E09.mkv (1.5 GB)
  • Love Tyrant S01E10.mkv (1.7 GB)
  • Love Tyrant S01E11.mkv (1.7 GB)
  • Love Tyrant S01E12.mkv (2.0 GB)


Anime Tosho Home Ren'ai Boukun Unsorted Files . . I only made this because the USBD is a minimum six months away and I didn't want to wait for Eng BD audio

I only made this because the USBD is a minimum six months away and I didn't want to wait for Eng BD audio.

All categories Anime - Anime Music Video - English-translated - ed - Raw Audio - Lossless . png) @ Cleo , PLEASE encode this sourse Shangri-La in x265/HEVC 10bit ?? Kiyome.

All categories Anime - Anime Music Video - English-translated - ed - Raw Audio - Lossless - Lossy Literature - English-translated - ed - Raw Live Action - English-translated - Idol/Promotional Video - ed - Raw Pictures - Graphics - Photos Software - Applications - Games. Renai Boukun Love Tyrant . Category: Anime - English-translated. 2018-01-15 23:15 UTC.

Alternative Titles English: Love Tyrant Japanese: æ‹æ„ æš´å. Information Type: TV Episodes: 12 Status: Finished Airing Aired: Apr 7, 2017 to Jun 23, 2017 Premiered: Spring 2017 Broadcast: Fridays at 02:35 (JST) Producers: TV Tokyo, Half . Studio, DIVE II Entertainment, Avex Pictures Licensors: Funimation Studios: EMT² Source: Web manga Genres: Harem, Comedy, Supernatural, Romance, Ecchi, School Duration: 23 min. per ep.

to Renai Boukun Love Tyrant Anime. co Renai Boukun Love Tyrant Anime. You cannot download any of those files from here.

Free Download Renai Boukun anime episodes.

Looking To Watch Renai Boukun Anime For Free? . A Kiss Note is a powerful notebook that makes anyone who has their name written together will instantly fall in love if they kiss each other regardless of any circumstances.

Looking To Watch Renai Boukun Anime For Free? Watch online subbed at AnimeKisa. This magical and very familiar item belongs to an angel named Guri whose job as cupid is to create couples. However, she accidentally writes down Aino Seiji, a regular high school student, and unless he kisses someone, Guri will die.

Ansatsu Kyoushitsu Assassination Classroom.

Accel World: Infinite∞Burst Accel World: Infinite Burst. Ansatsu Kyoushitsu Assassination Classroom.

Thanks for downloading, Enjoy your Anime (o˘◡˘o)

**Video/Jap Audio:** moscowgolem
**Eng Audio:** LostYears, Funimation
**Subs:** HorribleSubs
I didn't reencode anything, just cut, timed, and muxed. Only the first two eps are HE-AACv2 because they aired before Funimation switched back to better audio. I won't be able to seed this for long so it's up to the people that download it to seed. I only made this because the USBD is a minimum six months away and I didn't want to wait for Eng BD audio.
**Media Info for Ep.01**
Format                                   : Matroska
Format version                           : Version 4 / Version 2
File size                                : 1.63 GiB
Duration                                 : 23 min 55 s
Overall bit rate mode                    : Variable
Overall bit rate                         : 9 729 kb/s
Encoded date                             : UTC 2017-12-21 23:36:25
Writing application                      : mkvmerge v19.0.0 ('Brave Captain') 64-bit
Writing library                          : libebml v1.3.5 + libmatroska v1.4.8
Video
ID                                       : 1
Format                                   : AVC
Format/Info                              : Advanced Video Codec
Format profile                           : High [email protected]
Format settings, CABAC                   : Yes
Format settings, RefFrames               : 4 frames
Codec ID                                 : V_MPEG4/ISO/AVC
Duration                                 : 23 min 55 s
Bit rate mode                            : Variable
Bit rate                                 : 8 188 kb/s
Maximum bit rate                         : 150 Mb/s
Width                                    : 1 920 pixels
Height                                   : 1 080 pixels
Display aspect ratio                     : 16:9
Frame rate mode                          : Constant
Frame rate                               : 23.976 (24000/1001) FPS
Color space                              : YUV
Chroma subsampling                       : 4:2:0
Bit depth                                : 10 bits
Scan type                                : Progressive
Bits/(Pixel*Frame)                       : 0.165
Stream size                              : 1.37 GiB (84%)
Writing library                          : x264 core 152 r2851 ba24899 [L-SMASH]
Encoding settings                        : cabac=1 / ref=4 / deblock=1:0:0 / analyse=0x3:0x133 / me=esa / subme=9 / psy=1 / psy_rd=2.00:0.00 / mixed_ref=1 / me_range=24 / chroma_me=1 / trellis=2 / 8x8dct=1 / cqm=0 / deadzone=21,11 / fast_pskip=0 / chroma_qp_offset=-2 / threads=30 / lookahead_threads=1 / sliced_threads=0 / nr=0 / decimate=0 / interlaced=0 / bluray_compat=0 / constrained_intra=0 / bframes=3 / b_pyramid=2 / b_adapt=2 / b_bias=0 / direct=3 / weightb=1 / open_gop=0 / weightp=2 / keyint=250 / keyint_min=4 / scenecut=40 / intra_refresh=0 / rc_lookahead=60 / rc=crf / mbtree=1 / crf=15.0 / qcomp=0.60 / qpmin=0 / qpmax=81 / qpstep=4 / vbv_maxrate=150000 / vbv_bufsize=150000 / crf_max=0.0 / nal_hrd=vbr / filler=0 / ip_ratio=1.40 / aq=1:1.00
Default                                  : Yes
Forced                                   : No
Color range                              : Limited
Color primaries                          : BT.709
Transfer characteristics                 : BT.709
Matrix coefficients                      : BT.709
Audio #1
ID                                       : 2
Format                                   : AAC
Format/Info                              : Advanced Audio Codec
Format profile                           : HE-AACv2 / HE-AAC / LC
Codec ID                                 : A_AAC
Duration                                 : 23 min 55 s
Bit rate                                 : 62.7 kb/s
Channel(s)                               : 2 channels / 1 channel / 1 channel
Channel positions                        : Front: L R / Front: C / Front: C
Sampling rate                            : 48.0 kHz / 48.0 kHz / 24.0 kHz
Frame rate                               : 23.438 FPS (1024 SPF)
Compression mode                         : Lossy
Stream size                              : 10.7 MiB (1%)
Language                                 : English
Default                                  : Yes
Forced                                   : No
Audio #2
ID                                       : 3
Format                                   : FLAC
Format/Info                              : Free Lossless Audio Codec
Codec ID                                 : A_FLAC
Duration                                 : 23 min 55 s
Bit rate mode                            : Variable
Bit rate                                 : 1 476 kb/s
Channel(s)                               : 2 channels
Channel positions                        : Front: L R
Sampling rate                            : 48.0 kHz
Frame rate                               : 10.417 FPS (4608 SPF)
Bit depth                                : 24 bits
Stream size                              : 253 MiB (15%)
Writing library                          : Lavf56.15.102
Language                                 : Japanese
Default                                  : No
Forced                                   : No
Text #1
ID                                       : 4
Format                                   : ASS
Codec ID                                 : S_TEXT/ASS
Codec ID/Info                            : Advanced Sub Station Alpha
Duration                                 : 23 min 22 s
Bit rate                                 : 7 b/s
Count of elements                        : 18
Compression mode                         : Lossless
Stream size                              : 1.30 KiB (0%)
Language                                 : English
Default                                  : Yes
Forced                                   : No
Text #2
ID                                       : 5
Format                                   : ASS
Codec ID                                 : S_TEXT/ASS
Codec ID/Info                            : Advanced Sub Station Alpha
Duration                                 : 23 min 54 s
Bit rate                                 : 176 b/s
Count of elements                        : 470
Compression mode                         : Lossless
Stream size                              : 30.9 KiB (0%)
Language                                 : English
Default                                  : No
Forced                                   : No

Images:

Related at Renai Boukun Love Tyrant :
© 2019 www.gphi.it | Contacts | DMCA | Privacy Policy