» » Tales from Earthsea 1080p BDRip x265 AAC 5 1 Goki 2006
Language: English
Size: 4.5 GB
Rating: 4.0
Category: Dual Audio
Votes: 054
Tales from Earthsea 1080p BDRip x265 AAC 5 1 Goki 2006
Files:
Tales from Earthsea (2006) 1080p BDRip x265 AAC 5.1 Goki [SEV]
  • Tales from Earthsea (2006) 1080p BDRip x265 AAC 5.1 Goki [SEV].mkv (4.5 GB)
  • Tales from Earthsea (2006) 1080p BDRip x265 AAC 5.1 Goki [SEV].nfo (5.8 KB)
  • Tales from Earthsea (2006) 1080p BDRip x265 AAC 5.1 Goki [SEV]-banner.jpg (170.0 KB)
  • Tales from Earthsea (2006) 1080p BDRip x265 AAC 5.1 Goki [SEV]-clearart.png (597.3 KB)
  • Tales from Earthsea (2006) 1080p BDRip x265 AAC 5.1 Goki [SEV]-clearlogo.png (78.2 KB)
  • Tales from Earthsea (2006) 1080p BDRip x265 AAC 5.1 Goki [SEV]-disc.png (266.5 KB)
  • Tales from Earthsea (2006) 1080p BDRip x265 AAC 5.1 Goki [SEV]-fanart.jpg (982.6 KB)
  • Tales from Earthsea (2006) 1080p BDRip x265 AAC 5.1 Goki [SEV]-keyart.jpg (596.8 KB)
  • Tales from Earthsea (2006) 1080p BDRip x265 AAC 5.1 Goki [SEV]-logo.png (78.2 KB)
  • Tales from Earthsea (2006) 1080p BDRip x265 AAC 5.1 Goki [SEV]-poster.jpg (667.2 KB)
  • Tales from Earthsea (2006) 1080p BDRip x265 AAC 5.1 Goki [SEV]-thumb.jpg (471.4 KB)


superman brainiac attacks p bdrip x265 aac 5 1 results 1 - 1 from 1. Torrent Name.

superman brainiac attacks p bdrip x265 aac 5 1 results 1 - 1 from 1. Superman - Brainiac Attacks (2006) 1080p BDRip x265 AAC 5 1 - Goki.

Tales from Earthsea (2006) 1080p BDRip x265 DTS-HD MA 5 1 Goki SEV Posted by Goki in Anime Dual Audio. Tales from Earthsea (Gedo Senki) p Bluray x265 10Bit AAC 6 1 - GetSchwifty Posted by GetSchwifty in Movies HEVC/x265.

x264-HANDJOB – . GB. Th. omb. x264-ExREN – . Manhandled. x264-LATENCY – . Still. x264-REGRET – . Misfit. 264-NTG – . TV-Shows 1080p Posted 9 hours ago.

Studio Ghibli Film Collection (Movies From 1984-2016) . .Tales from Earthsea (2006) . 7 GB. 0. 53. 4. 29. 2. Death Note Relight 1 - 2 BD (10-bit x264 1080p FLAC). 1. 9 GB. 393. Only Yesterday (1991) . 138. Pom Poko (Ponpoko) (1994) . 2 GB. 75.

2CH AAC Japanese Runtime. 1h 55mn Subtitles Lapor di sini biar segera diproses. Tags 2006 anime ghibli. Previous Spirited Away (2001) BluRay 480p, 720p, & 1080p. Next The Cat Returns (2002) BluRay 480p & 720p. English softcoded Chapter. Lapor di sini biar segera diproses. The Tale of the Princess Kaguya (2013) BluRay 480p & 720p. Ponyo (2008) BluRay 480p & 720p. Princess Mononoke (1997) BluRay 480p & 720p. Nausicaä of the Valley of the Wind (1984) BluRay 480p & 720p. Howl’s Moving Castle (2004) BluRay 480p & 720p. My Neighbor Totoro (1988) BluRay 480p, 720p, & 1080p. December 23, 2016 at 11:34 am.

All Music Audio books Sound clips FLAC Other Movies Movies DVDR Music videos Movie clips TV shows Handheld HD - Movies HD - TV shows 3D Other Windows Mac UNIX . The Fly 1986 BDRip x265 10bit overall 2691 bitrate. Get this torrent PLAY/STREAM TORRENT.

All Music Audio books Sound clips FLAC Other Movies Movies DVDR Music videos Movie clips TV shows Handheld HD - Movies HD - TV shows 3D Other Windows Mac UNIX Handheld IOS (iPad/iPhone) Android Other OS PC Mac PSx XBOX360 Wii Handheld IOS (iPad/iPhone) Android Other Movies Movies DVDR Pictures Games HD - Movies Movie clips Other E-books Comics Pictures Covers. Details for this torrent.

Tales from Earthsea (2006) .cocok jg untuk m720p.mkv. Tales from Earthsea Gedo senki 2006.

Please OFF ADBLOCK to watch movies. Kissmovies only works on domain kissmovies. Something bizarre has come over the land. What's even more strange is that people are beginning to see dragons, which shouldn't enter the world of humans Genre: Animation, Adventure, Fantasy.

Name: Ged Senki: Tales from Earthsea, Gedo Senki, Ged Senki, gedosen, gedsen, Tales of Ged, Contos. Audio (German): Format: Vorbis Bitrate: 10. Kbps Channels: 2 channels Sampling Rate: 4. KHz Bit Depth: 16 bits.

SERIES INFORMATION Original Name: ゲド戦記 Alternative Name: Ged Senki: Tales from Earthsea, Gedo Senki, Ged Senki, gedosen, gedsen, Tales of Ged, Contos. Audio (Spanish): Format: Vorbis Bitrate: 10.


Screenshots


Media Information

Unique ID                                : 78694198521449566887888070576317509030 (0x3B33F38AE67E37AE0E83FB541F1DADA6)
Complete name                            : Tales from Earthsea 1080p BDRip x265 AAC 5.1 Goki [SEV].mkv
Format                                   : Matroska
Format version                           : Version 4
File size                                : 4.54 GiB
Duration                                 : 1 h 55 min
Overall bit rate                         : 5 622 kb/s
Movie name                               : Tales from Earthsea 1080p BDRip x265 AAC 5.1 Goki [SEV]
Encoded date                             : UTC 2019-06-15 07:37:33
Writing application                      : mkvmerge v28.2.0 ('The Awakening') 64-bit
Writing library                          : libebml v1.3.6 + libmatroska v1.4.9
Video
ID                                       : 1
Format                                   : HEVC
Format/Info                              : High Efficiency Video Coding
Format profile                           : Main [email protected]@Main
Codec ID                                 : V_MPEGH/ISO/HEVC
Duration                                 : 1 h 55 min
Bit rate                                 : 4 573 kb/s
Width                                    : 1 920 pixels
Height                                   : 1 080 pixels
Display aspect ratio                     : 16:9
Frame rate mode                          : Constant
Frame rate                               : 23.976 (24000/1001) FPS
Color space                              : YUV
Chroma subsampling                       : 4:2:0
Bit depth                                : 10 bits
Bits/(Pixel*Frame)                       : 0.092
Stream size                              : 3.69 GiB (81%)
Writing library                          : x265 2.9+8-27d8424c799d:[Windows][MSVC 1915][64 bit] 10bit
Encoding settings                        : cpuid=1111039 / frame-threads=2 / numa-pools=4 / wpp / no-pmode / no-pme / no-psnr / no-ssim / log-level=2 / input-csp=1 / input-res=1920x1080 / interlace=0 / total-frames=0 / level-idc=0 / high-tier=1 / uhd-bd=0 / ref=4 / no-allow-non-conformance / no-repeat-headers / annexb / no-aud / no-hrd / info / hash=0 / no-temporal-layers / open-gop / min-keyint=23 / keyint=250 / gop-lookahead=0 / bframes=8 / b-adapt=2 / b-pyramid / bframe-bias=0 / rc-lookahead=100 / lookahead-slices=4 / scenecut=40 / radl=0 / no-intra-refresh / ctu=64 / min-cu-size=8 / no-rect / no-amp / max-tu-size=32 / tu-inter-depth=2 / tu-intra-depth=2 / limit-tu=4 / rdoq-level=2 / dynamic-rd=0.00 / no-ssim-rd / signhide / no-tskip / nr-intra=0 / nr-inter=0 / no-constrained-intra / no-strong-intra-smoothing / max-merge=3 / limit-refs=2 / limit-modes / me=3 / subme=5 / merange=57 / temporal-mvp / weightp / weightb / no-analyze-src-pics / deblock=0:0 / sao / no-sao-non-deblock / rd=6 / no-early-skip / rskip / no-fast-intra / no-tskip-fast / no-cu-lossless / b-intra / no-splitrd-skip / rdpenalty=0 / psy-rd=1.30 / psy-rdoq=2.00 / no-rd-refine / no-lossless / cbqpoffs=0 / crqpoffs=0 / rc=crf / crf=17.0 / qcomp=0.60 / qpstep=4 / stats-write=0 / stats-read=0 / ipratio=1.40 / pbratio=1.30 / aq-mode=2 / aq-strength=1.10 / cutree / zone-count=0 / no-strict-cbr / qg-size=32 / no-rc-grain / qpmax=69 / qpmin=0 / no-const-vbv / sar=1 / overscan=0 / videoformat=5 / range=0 / colorprim=2 / transfer=2 / colormatrix=2 / chromaloc=0 / display-window=0 / max-cll=0,0 / min-luma=0 / max-luma=1023 / log2-max-poc-lsb=8 / vui-timing-info / vui-hrd-info / slices=1 / no-opt-qp-pps / no-opt-ref-list-length-pps / no-multi-pass-opt-rps / scenecut-bias=0.05 / no-opt-cu-delta-qp / no-aq-motion / no-hdr / no-hdr-opt / no-dhdr10-opt / no-idr-recovery-sei / analysis-reuse-level=5 / scale-factor=0 / refine-intra=0 / refine-inter=0 / refine-mv=0 / no-limit-sao / ctu-info=0 / no-lowpass-dct / refine-mv-type=0 / copy-pic=1 / max-ausize-factor=1.0 / no-dynamic-refine / no-single-sei
Language                                 : English
Default                                  : Yes
Forced                                   : No
Audio #1
ID                                       : 2
Format                                   : AAC LC
Format/Info                              : Advanced Audio Codec Low Complexity
Codec ID                                 : A_AAC-2
Duration                                 : 1 h 55 min
Bit rate                                 : 448 kb/s
Channel(s)                               : 6 channels
Channel layout                           : C L R Ls Rs LFE
Sampling rate                            : 48.0 kHz
Frame rate                               : 46.875 FPS (1024 SPF)
Compression mode                         : Lossy
Delay relative to video                  : 9 ms
Stream size                              : 370 MiB (8%)
Language                                 : English
Default                                  : Yes
Forced                                   : No
Audio #2
ID                                       : 3
Format                                   : AAC LC
Format/Info                              : Advanced Audio Codec Low Complexity
Codec ID                                 : A_AAC-2
Duration                                 : 1 h 55 min
Bit rate                                 : 576 kb/s
Channel(s)                               : 7 channels
Channel layout                           : C L R Ls Rs Cb LFE
Sampling rate                            : 48.0 kHz
Frame rate                               : 46.875 FPS (1024 SPF)
Compression mode                         : Lossy
Delay relative to video                  : 20 ms
Stream size                              : 476 MiB (10%)
Language                                 : Japanese
Default                                  : No
Forced                                   : No
Text
ID                                       : 4
Format                                   : PGS
Codec ID                                 : S_HDMV/PGS
Codec ID/Info                            : Picture based subtitle format used on BDs/HD-DVDs
Duration                                 : 1 h 55 min
Bit rate                                 : 26.3 kb/s
Count of elements                        : 1984
Stream size                              : 21.7 MiB (0%)
Language                                 : English
Default                                  : No
Forced                                   : No
Menu
00:00:00.000                             : en:Chapter 01
00:06:49.158                             : en:Chapter 02
00:10:15.531                             : en:Chapter 03
00:15:43.067                             : en:Chapter 04
00:20:12.377                             : en:Chapter 05
00:25:24.272                             : en:Chapter 06
00:27:58.635                             : en:Chapter 07
00:32:01.127                             : en:Chapter 08
00:38:55.583                             : en:Chapter 09
00:43:39.325                             : en:Chapter 10
00:46:34.374                             : en:Chapter 11
00:51:15.030                             : en:Chapter 12
00:59:28.398                             : en:Chapter 13
01:04:01.879                             : en:Chapter 14
01:10:16.629                             : en:Chapter 15
01:16:05.310                             : en:Chapter 16
01:19:45.822                             : en:Chapter 17
01:22:19.935                             : en:Chapter 18
01:26:11.332                             : en:Chapter 19
01:29:41.876                             : en:Chapter 20
01:35:41.360                             : en:Chapter 21
01:41:04.725                             : en:Chapter 22
01:44:27.052                             : en:Chapter 23
01:49:10.460                             : en:Chapter 24
01:51:09.412                             : en:Chapter 25

Source Information

Unique ID                                : 148286930984434110082170608149574271655 (0x6F8F0629BDC0BF0E03899C25BFF142A7)
Complete name                            : Tales From Earthsea_t07.mkv
Format                                   : Matroska
Format version                           : Version 2
File size                                : 21.8 GiB
Duration                                 : 1 h 55 min
Overall bit rate mode                    : Variable
Overall bit rate                         : 27.0 Mb/s
Movie name                               : Tales From Earthsea
Encoded date                             : UTC 2019-06-11 06:46:06
Writing application                      : MakeMKV v1.14.2 win(x64-release)
Writing library                          : libmakemkv v1.14.2 (1.3.5/1.4.7) win(x64-release)
Video
ID                                       : 1
ID in the original source medium         : 4113 (0x1011)
Format                                   : AVC
Format/Info                              : Advanced Video Codec
Format profile                           : [email protected]
Format settings                          : CABAC / 4 Ref Frames
Format settings, CABAC                   : Yes
Format settings, RefFrames               : 4 frames
Codec ID                                 : V_MPEG4/ISO/AVC
Duration                                 : 1 h 55 min
Bit rate mode                            : Variable
Bit rate                                 : 22.3 Mb/s
Maximum bit rate                         : 30.0 Mb/s
Width                                    : 1 920 pixels
Height                                   : 1 080 pixels
Display aspect ratio                     : 16:9
Frame rate mode                          : Constant
Frame rate                               : 23.976 (24000/1001) FPS
Standard                                 : NTSC
Color space                              : YUV
Chroma subsampling                       : 4:2:0
Bit depth                                : 8 bits
Scan type                                : Progressive
Bits/(Pixel*Frame)                       : 0.448
Stream size                              : 18.0 GiB (82%)
Language                                 : English
Default                                  : No
Forced                                   : No
Color range                              : Limited
Color primaries                          : BT.709
Transfer characteristics                 : BT.709
Matrix coefficients                      : BT.709
Original source medium                   : Blu-ray
Audio #1
ID                                       : 2
ID in the original source medium         : 4352 (0x1100)
Format                                   : DTS XLL
Format/Info                              : Digital Theater Systems
Commercial name                          : DTS-HD Master Audio
Codec ID                                 : A_DTS
Duration                                 : 1 h 55 min
Bit rate mode                            : Variable
Bit rate                                 : 2 260 kb/s
Channel(s)                               : 6 channels
Channel layout                           : C L R Ls Rs LFE
Sampling rate                            : 48.0 kHz
Frame rate                               : 93.750 FPS (512 SPF)
Bit depth                                : 16 bits
Compression mode                         : Lossless
Stream size                              : 1.82 GiB (8%)
Title                                    : Surround 5.1
Language                                 : English
Default                                  : Yes
Forced                                   : No
Original source medium                   : Blu-ray
Audio #2
ID                                       : 3
ID in the original source medium         : 4353 (0x1101)
Format                                   : DTS ES XXCH XLL
Format/Info                              : Digital Theater Systems
Commercial name                          : DTS-HD Master Audio
Codec ID                                 : A_DTS
Duration                                 : 1 h 55 min
Bit rate mode                            : Variable
Bit rate                                 : 2 461 kb/s
Channel(s)                               : 7 channels
Channel layout                           : C L R Ls Rs LFE Cb
Sampling rate                            : 48.0 kHz
Frame rate                               : 93.750 FPS (512 SPF)
Bit depth                                : 16 bits
Compression mode                         : Lossless
Stream size                              : 1.99 GiB (9%)
Title                                    : Surround 6.1
Language                                 : Japanese
Default                                  : No
Forced                                   : No
Original source medium                   : Blu-ray
Text
ID                                       : 4
ID in the original source medium         : 4608 (0x1200)
Format                                   : PGS
Codec ID                                 : S_HDMV/PGS
Codec ID/Info                            : Picture based subtitle format used on BDs/HD-DVDs
Duration                                 : 1 h 55 min
Bit rate                                 : 26.3 kb/s
Count of elements                        : 1984
Stream size                              : 21.7 MiB (0%)
Language                                 : English
Default                                  : No
Forced                                   : No
Original source medium                   : Blu-ray
Menu
00:00:00.000                             : en:Chapter 01
00:06:49.158                             : en:Chapter 02
00:10:15.531                             : en:Chapter 03
00:15:43.067                             : en:Chapter 04
00:20:12.377                             : en:Chapter 05
00:25:24.272                             : en:Chapter 06
00:27:58.635                             : en:Chapter 07
00:32:01.127                             : en:Chapter 08
00:38:55.583                             : en:Chapter 09
00:43:39.325                             : en:Chapter 10
00:46:34.374                             : en:Chapter 11
00:51:15.030                             : en:Chapter 12
00:59:28.398                             : en:Chapter 13
01:04:01.879                             : en:Chapter 14
01:10:16.629                             : en:Chapter 15
01:16:05.310                             : en:Chapter 16
01:19:45.822                             : en:Chapter 17
01:22:19.935                             : en:Chapter 18
01:26:11.332                             : en:Chapter 19
01:29:41.876                             : en:Chapter 20
01:35:41.360                             : en:Chapter 21
01:41:04.725                             : en:Chapter 22
01:44:27.052                             : en:Chapter 23
01:49:10.460                             : en:Chapter 24
01:51:09.412                             : en:Chapter 25
.........................................................................................................................................
We have no issue with individuals posting or re-uploading our torrents on a platform we aren't on. However, if this is something you'd like to do, please do so in a 'as-is' format. We ask that you do not create a new torrent, include all descriptions you see above including the SEV logo, tags, notes and screenshots. If you'd like to become a permanent poster on a website we don't post to, feel free to get in contact with a Sublime Encoded Video member.
We are recruiting/training new members for SEV & seedbox providers as well as people to help out with subtitles.
As you already know, we deliver quality, so you know the standard.
If you're interested, feel free to contact any of the team members.
[/center]

Images:
https://i.postimg.cc/P5qW5hC2/SEV-logo.png|https://i.postimg.cc/Rh35RQNj/tfes1.png|https://i.postimg.cc/1RTZzTdP/tfes2.png|https://i.postimg.cc/JzCVNXm2/tfes3.png|https://i.postimg.cc/L8kdNs86/tfes4.png

Related at Tales from Earthsea 1080p BDRip x265 AAC 5 1 Goki :
© 2019 www.gphi.it | Contacts | DMCA | Privacy Policy