» » Gekijouban Sword Art Online: Ordinal Scale 720p Dual Audio 2017
Language: English
Size: 2.5 GB
Rating: 4.7
Category: Dual Audio
Votes: 118
Gekijouban Sword Art Online: Ordinal Scale 720p Dual Audio 2017
Files:
  • Sword Art Online The Movie Ordinal Scale S00E22 [BDRip][Dual Audio][720p] V1.mkv (2.5 GB)


One Thought on Gekijouban Sword Art Online: Ordinal Scale . Rob on September 29, 2017 at 06:47 said: Thank you so much.

Torrents . Sword Art Online Ordinal Scale. Posted in: Completed. One Thought on Gekijouban Sword Art Online: Ordinal Scale . I pray for your continuing service as a savior.

Sword Art Online The Movie Ordinal Scale S00E22 V. kv (. GiB). 2017-12-19 15:57 UTC. say, does the source also included a Sword Art Offline segment which is English subbed as well? freaky. 2017-12-19 17:11 UTC. The original uploader didn't include it on the origin site. There goes his wishes for it to stay in that site though.

Экшн, приключения, фэнтези. Based on Kawahara Reki& light novel series Sword Art Online. In 2022, the world of virtual reality was upended by the arrival of a new invention from a genius programmer, Kayaba Akihiko

Экшн, приключения, фэнтези. In 2022, the world of virtual reality was upended by the arrival of a new invention from a genius programmer, Kayaba Akihiko. Called NerveGear, it was the first full-dive. More system and with it, came endless possibilities to VRMMORPGs. In 2026, a new machine called the Augma is developed to compete against the NerveGear and its successor, the Amusphere. A next-gen wearable device, the Augma doesn& have a full-dive function like its predecessors

Zerochan has 210 Gekijouban Sword Art Online -Ordinal Scale- anime images, wallpapers, Android/iPhone wallpapers, fanart, and many more in its gallery.

Zerochan has 210 Gekijouban Sword Art Online -Ordinal Scale- anime images, wallpapers, Android/iPhone wallpapers, fanart, and many more in its gallery. Gekijouban Sword Art Online -Ordinal Scale- (Sword Art Online The Movie -ordinal Scale- ) Images.

Sword Art Online The Movie: Ordinal Scale is a 2017 Japanese animated science fantasy action adventure film based on the Sword Art Online light novel series written by Reki Kawahara and illustrated by abec

Sword Art Online The Movie: Ordinal Scale is a 2017 Japanese animated science fantasy action adventure film based on the Sword Art Online light novel series written by Reki Kawahara and illustrated by abec. The film is produced by A-1 Pictures and directed by Tomohiko Itō, and is an official part of the Sword Art Online storyline, featuring an original story by Kawahara, character designs by Shingo Adachi and music by Yuki Kajiura

Gekijouban Sword Art Online: Ordinal Scale - .

Gekijouban Sword Art Online: Ordinal Scale - .

Watch online and download Sword Art Online Movie: Ordinal Scale (Sub) .

Watch online and download Sword Art Online Movie: Ordinal Scale (Sub) anime in high quality. Various formats from 240p to 720p HD (or even 1080p). Other name: Sword Art Online the Movie -Ordinal Scale-; Gekijouban Sword Art Online; 劇場版 ソードアート・オンライン -オーディナル・スケール-; Gekijouban Sword Art Online Ordinal Scale. Genres: Action, Adventure, Fantasy, Game, Movie, Romance. Date aired: Feb 18, 2017. The most popular application for the Augma is the game Ordinal Scale, which immerses players in a fantasy role-playing game with player rankings and rewards.

Audio recognition by ACRCloud. art online movie: ordinal scale. art online punch man no kuni ga motenai no wa dou kangaetemo omaera ga warui! sensen no kanata amv scale.

Thanks for downloading, Enjoy your Anime (o˘◡˘o)

Format : Matroska
Format version : Version 4 / Version 2
File size : 2.47 GiB
Duration : 2h 0mn
Overall bit rate : 2 936 Kbps
Movie name : Sword Art Online Ordinal Scale
Video
ID : 1
Format : AVC
Format/Info : Advanced Video Codec
Format profile : [email protected]
Format settings, CABAC : Yes
Format settings, ReFrames : 4 frames
Codec ID : V_MPEG4/ISO/AVC
Duration : 2h 0mn
Bit rate : 1 598 Kbps
Width : 1 280 pixels
Height : 720 pixels
Display aspect ratio : 16:9
Frame rate mode : Constant
Frame rate : 23.976 fps
Color space : YUV
Chroma subsampling : 4:2:0
Bit depth : 8 bits
Scan type : Progressive
Bits/(Pixel*Frame) : 0.072
Stream size : 1.34 GiB (54%)
Writing library : x264 core 148 r2708 86b7198
Encoding settings : cabac=1 / ref=3 / deblock=1:0:0 / analyse=0x3:0x113 / me=hex / subme=7 / psy=1 / psy_rd=1.00:0.00 / mixed_ref=1 / me_range=16 / chroma_me=1 / trellis=1 / 8x8dct=1 / cqm=0 / deadzone=21,11 / fast_pskip=1 / chroma_qp_offset=-2 / threads=18 / lookahead_threads=3 / sliced_threads=0 / nr=0 / decimate=1 / interlaced=0 / bluray_compat=0 / constrained_intra=0 / bframes=3 / b_pyramid=2 / b_adapt=1 / b_bias=0 / direct=1 / weightb=1 / open_gop=0 / weightp=2 / keyint=240 / keyint_min=24 / scenecut=40 / intra_refresh=0 / rc_lookahead=40 / rc=crf / mbtree=1 / crf=20.0 / qcomp=0.60 / qpmin=0 / qpmax=69 / qpstep=4 / vbv_maxrate=25000 / vbv_bufsize=31250 / crf_max=0.0 / nal_hrd=none / filler=0 / ip_ratio=1.40 / aq=1:1.00
Default : Yes
Forced : No
Color primaries : BT.709
Transfer characteristics : BT.709
Matrix coefficients : BT.709
Audio #1
ID : 2
Format : AC-3
Format/Info : Audio Coding 3
Mode extension : CM (complete main)
Format settings, Endianness : Big
Codec ID : A_AC3
Duration : 2h 0mn
Bit rate mode : Constant
Bit rate : 640 Kbps
Channel(s) : 6 channels
Channel positions : Front: L C R, Side: L R, LFE
Sampling rate : 48.0 KHz
Bit depth : 16 bits
Compression mode : Lossy
Delay relative to video : -5ms
Stream size : 550 MiB (22%)
Title : Surround
Language : English
Default : Yes
Forced : No
Audio #2
ID : 3
Format : AC-3
Format/Info : Audio Coding 3
Mode extension : CM (complete main)
Format settings, Endianness : Big
Codec ID : A_AC3
Duration : 2h 0mn
Bit rate mode : Constant
Bit rate : 640 Kbps
Channel(s) : 6 channels
Channel positions : Front: L C R, Side: L R, LFE
Sampling rate : 48.0 KHz
Bit depth : 16 bits
Compression mode : Lossy
Delay relative to video : -5ms
Stream size : 550 MiB (22%)
Title : Surround
Language : Japanese
Default : No
Forced : No
Text #1
ID : 4
Format : PGS
Codec ID : S_HDMV/PGS
Codec ID/Info : The same subtitle format used on BDs/HD-DVDs
Language : English
Default : No
Forced : No
Text #2
ID : 5
Format : PGS
Codec ID : S_HDMV/PGS
Codec ID/Info : The same subtitle format used on BDs/HD-DVDs
Language : English
Default : No
Forced : No
Text #3
ID : 6
Format : PGS
Codec ID : S_HDMV/PGS
Codec ID/Info : The same subtitle format used on BDs/HD-DVDs
Language : Spanish
Default : No
Forced : No
Menu
00:00:00.000 : :Chapter 1
00:04:06.246 : :Chapter 2
00:11:04.664 : :Chapter 3
00:19:37.051 : :Chapter 4
00:25:59.308 : :Chapter 5
00:32:03.130 : :Chapter 6
00:38:33.853 : :Chapter 7
00:42:36.888 : :Chapter 8
00:45:19.926 : :Chapter 9
00:51:59.992 : :Chapter 10
00:55:47.344 : :Chapter 11
01:02:52.519 : :Chapter 12
01:09:04.724 : :Chapter 13
01:19:41.402 : :Chapter 14
01:23:58.367 : :Chapter 15
01:26:41.154 : :Chapter 16
01:33:49.666 : :Chapter 17
01:39:29.964 : :Chapter 18
01:46:47.359 : :Chapter 19
01:50:46.682 : :Chapter 20
01:54:33.617 : :Chapter 21
01:59:13.647 : :Chapter 22

Images:

Related at Gekijouban Sword Art Online: Ordinal Scale 720p:
© 2019 www.gphi.it | Contacts | DMCA | Privacy Policy