» » Pokemon - Arceus and the Jewel of Life 1080p BDRip x265 AAC 5 1 Goki 2009
Language: English
Size: 3.8 GB
Rating: 4.4
Category: Dual Audio
Votes: 391
Pokemon - Arceus and the Jewel of Life 1080p BDRip x265 AAC 5 1 Goki 2009
Files:
Pokemon - Arceus and the Jewel of Life (2009) 1080p BDRip x265 AAC 5.1 Goki [SEV]
  • Pokemon - Arceus and the Jewel of Life (2009) 1080p BDRip x265 AAC 5.1 Goki [SEV].mkv (3.8 GB)
  • Pokemon - Arceus and the Jewel of Life (2009) 1080p BDRip x265 AAC 5.1 Goki [SEV].nfo (6.5 KB)
  • Pokemon - Arceus and the Jewel of Life (2009) 1080p BDRip x265 AAC 5.1 Goki [SEV]-clearlogo.png (168.6 KB)
  • Pokemon - Arceus and the Jewel of Life (2009) 1080p BDRip x265 AAC 5.1 Goki [SEV]-fanart.jpg (347.7 KB)
  • Pokemon - Arceus and the Jewel of Life (2009) 1080p BDRip x265 AAC 5.1 Goki [SEV]-logo.png (168.6 KB)
  • Pokemon - Arceus and the Jewel of Life (2009) 1080p BDRip x265 AAC 5.1 Goki [SEV]-poster.jpg (81.2 KB)


12 - Arceus and the Jewel of Life. Pokémon Movie 19 - Volcanion and the Mechanical Marvel. WATCH NOW. Pokémon Movie 21 - The Power of Us.

12 - Arceus and the Jewel of Life. Prev Movie Next Movie.

Added 2 days by Goki in Anime Dual Audio. harry potter tigole chamber.

Arceus, creator of the world, comes to pass judgement on humanity for the theft of the Jewel of Life, but Ash Ketchum and his friends are sent back in time to discover and possible reverse the events that led to Arceus' vendetta. UPGRADE NOW. No thanks, I want to see ads. Home. Watch Pokémon: Arceus and the Jewel of Life (2009) Online Free on Xmovies8.

Damos however betrayed Arceus and attacked it with a large army of Pokémon. After presumably killing Damos in its counterattack, Arceus went to sleep, vowing to judge all humans when it next returns. Ash and his friends reach Michina Town. As they play in the river, three watermelons float towards them.

As gratidude, Arceus promised to help make the desolate land of Michīna rich and prosperous so it gave Damos the Jewel of Life (命の宝玉)

Pokemon: Arceus and the Jewel of Life (Dub); Pokemon Diamond & Pearl: Arceus Choukoku no Jikuu e; Gekijouban Pocket Monsters Diamond and Pearl: To the Conquering of Space-Time; Pokemon Movie 12; ポケットモンスター ダイヤモンド&パール アルセウス 超克の時空へ. As gratidude, Arceus promised to help make the desolate land of Michīna rich and prosperous so it gave Damos the Jewel of Life (命の宝玉). Arceus let Damos borrow 16 parts of its body to create the Jewel of Life which were to be returned to it on a specific date. Arceus was betrayed when it was not returned and it vowed to judge humans when it awakens.

Long ago Arceus granted a fragment of its awesome power as the Jewel of Life to help Michina in the town's hour of need .

Long ago Arceus granted a fragment of its awesome power as the Jewel of Life to help Michina in the town's hour of need only to be betrayed when it was time for that power to be returned. After so many years Arceus is about to return to reclaim its power - enraged vengeful and seemingly unstoppable. Not even the combined might of Dialga, Palkia and Giratina can stop Arceus from devastating all existence across multiple dimensions. But Ash and his companions joining forces with their new friend Sheena, may have discovered the only way to redeem that ancient betrayal.

info he-Jewel-of-Life-(2009)C-5-1-Goki- Anime. co Pokemon - Arceus and the Jewel of Life (2009) 1080p BDRip x265 AAC 5 1 Goki Anime. ch he-Jewel-of-Life-(2009)C-5-1-Goki- Anime. eu Pokemon - Arceus and the Jewel of Life (2009) 1080p BDRip x265 AAC . Goki video.

Pokémon: Arceus and the Jewel of Life (2009) . GB. Started by Avengers TMV, November 25. Avengers TMV 21. Advanced Member.

Xstreamcdn Choose This Server. Pokemon - Arceus And The Jewel Of Life. IMDb . 95 min/episode. Arceus, creator of the world, comes to pass judgement on humanity for the theft of the Jewel of Life, but Ash and his friends, accompanied by their new companion Sheena, travel in time with Dialga’s help to right the mistakes of the town’s ancestors before the world crumbles under the power of Arceus’s rage.


Screenshots


Media Information

Unique ID : 5280313538667048974255866525747390449 (0x3F8F38EAFFAA79DEF3EBAAAC88E27F1)
Complete name : Pokemon - Arceus and the Jewel of Life 1080p BDRip x265 AAC 5.1 Goki [SEV].mkv
Format : Matroska
Format version : Version 4
File size : 3.84 GiB
Duration : 1 h 34 min
Overall bit rate : 5 829 kb/s
Movie name : Pokemon - Arceus and the Jewel of Life 1080p BDRip x265 AAC 5.1 Goki [SEV]
Encoded date : UTC 2019-07-03 03:55:12
Writing application : mkvmerge v28.2.0 ('The Awakening') 64-bit
Writing library : libebml v1.3.6 + libmatroska v1.4.9
Video
ID : 1
Format : HEVC
Format/Info : High Efficiency Video Coding
Format profile : Main [email protected]@Main
Codec ID : V_MPEGH/ISO/HEVC
Duration : 1 h 34 min
Bit rate : 4 896 kb/s
Width : 1 920 pixels
Height : 1 080 pixels
Display aspect ratio : 16:9
Frame rate mode : Constant
Frame rate : 23.976 (24000/1001) FPS
Color space : YUV
Chroma subsampling : 4:2:0
Bit depth : 10 bits
Bits/(Pixel*Frame) : 0.098
Stream size : 3.22 GiB (84%)
Writing library : x265 2.9+8-27d8424c799d:[Windows][MSVC 1915][64 bit] 10bit
Encoding settings : cpuid=1111039 / frame-threads=2 / numa-pools=4 / wpp / no-pmode / no-pme / no-psnr / no-ssim / log-level=2 / input-csp=1 / input-res=1920x1080 / interlace=0 / total-frames=0 / level-idc=0 / high-tier=1 / uhd-bd=0 / ref=4 / no-allow-non-conformance / no-repeat-headers / annexb / no-aud / no-hrd / info / hash=0 / no-temporal-layers / open-gop / min-keyint=23 / keyint=250 / gop-lookahead=0 / bframes=8 / b-adapt=2 / b-pyramid / bframe-bias=0 / rc-lookahead=100 / lookahead-slices=4 / scenecut=40 / radl=0 / no-intra-refresh / ctu=64 / min-cu-size=8 / no-rect / no-amp / max-tu-size=32 / tu-inter-depth=2 / tu-intra-depth=2 / limit-tu=4 / rdoq-level=2 / dynamic-rd=0.00 / no-ssim-rd / signhide / no-tskip / nr-intra=0 / nr-inter=0 / no-constrained-intra / no-strong-intra-smoothing / max-merge=3 / limit-refs=2 / limit-modes / me=3 / subme=5 / merange=57 / temporal-mvp / weightp / weightb / no-analyze-src-pics / deblock=0:0 / sao / no-sao-non-deblock / rd=6 / no-early-skip / rskip / no-fast-intra / no-tskip-fast / no-cu-lossless / b-intra / no-splitrd-skip / rdpenalty=0 / psy-rd=1.30 / psy-rdoq=2.00 / no-rd-refine / no-lossless / cbqpoffs=0 / crqpoffs=0 / rc=crf / crf=17.0 / qcomp=0.60 / qpstep=4 / stats-write=0 / stats-read=0 / ipratio=1.40 / pbratio=1.30 / aq-mode=2 / aq-strength=1.10 / cutree / zone-count=0 / no-strict-cbr / qg-size=32 / no-rc-grain / qpmax=69 / qpmin=0 / no-const-vbv / sar=1 / overscan=0 / videoformat=5 / range=0 / colorprim=2 / transfer=2 / colormatrix=2 / chromaloc=0 / display-window=0 / max-cll=0,0 / min-luma=0 / max-luma=1023 / log2-max-poc-lsb=8 / vui-timing-info / vui-hrd-info / slices=1 / no-opt-qp-pps / no-opt-ref-list-length-pps / no-multi-pass-opt-rps / scenecut-bias=0.05 / no-opt-cu-delta-qp / no-aq-motion / no-hdr / no-hdr-opt / no-dhdr10-opt / no-idr-recovery-sei / analysis-reuse-level=5 / scale-factor=0 / refine-intra=0 / refine-inter=0 / refine-mv=0 / no-limit-sao / ctu-info=0 / no-lowpass-dct / refine-mv-type=0 / copy-pic=1 / max-ausize-factor=1.0 / no-dynamic-refine / no-single-sei
Language : Japanese
Default : Yes
Forced : No
Audio #1
ID : 2
Format : AAC LC
Format/Info : Advanced Audio Codec Low Complexity
Codec ID : A_AAC-2
Duration : 1 h 34 min
Bit rate : 448 kb/s
Channel(s) : 6 channels
Channel layout : C L R Ls Rs LFE
Sampling rate : 48.0 kHz
Frame rate : 46.875 FPS (1024 SPF)
Compression mode : Lossy
Delay relative to video : 10 s 967 ms
Stream size : 301 MiB (8%)
Language : English
Default : Yes
Forced : No
Audio #2
ID : 3
Format : AAC LC
Format/Info : Advanced Audio Codec Low Complexity
Codec ID : A_AAC-2
Duration : 1 h 34 min
Bit rate : 448 kb/s
Channel(s) : 6 channels
Channel layout : C L R Ls Rs LFE
Sampling rate : 48.0 kHz
Frame rate : 46.875 FPS (1024 SPF)
Compression mode : Lossy
Delay relative to video : 9 ms
Stream size : 301 MiB (8%)
Language : Japanese
Default : No
Forced : No
Text #1
ID : 4
Format : VobSub
Codec ID : S_VOBSUB
Codec ID/Info : Picture based subtitle format used on DVDs
Duration : 1 h 33 min
Bit rate : 3 852 b/s
Count of elements : 837
Stream size : 2.58 MiB (0%)
Language : English
Default : No
Forced : No
Text #2
ID : 5
Format : VobSub
Codec ID : S_VOBSUB
Codec ID/Info : Picture based subtitle format used on DVDs
Duration : 1 h 33 min
Bit rate : 3 699 b/s
Count of elements : 836
Stream size : 2.47 MiB (0%)
Language : Norwegian
Default : No
Forced : No
Text #3
ID : 6
Format : VobSub
Codec ID : S_VOBSUB
Codec ID/Info : Picture based subtitle format used on DVDs
Duration : 1 h 28 min
Bit rate : 3 764 b/s
Count of elements : 763
Stream size : 2.39 MiB (0%)
Language : German
Default : No
Forced : No
Text #4
ID : 7
Format : VobSub
Codec ID : S_VOBSUB
Codec ID/Info : Picture based subtitle format used on DVDs
Duration : 1 h 28 min
Bit rate : 3 500 b/s
Count of elements : 751
Stream size : 2.22 MiB (0%)
Language : Danish
Default : No
Forced : No
Text #5
ID : 8
Format : VobSub
Codec ID : S_VOBSUB
Codec ID/Info : Picture based subtitle format used on DVDs
Duration : 1 h 28 min
Bit rate : 3 852 b/s
Count of elements : 764
Stream size : 2.45 MiB (0%)
Language : Greek
Default : No
Forced : No
Text #6
ID : 9
Format : VobSub
Codec ID : S_VOBSUB
Codec ID/Info : Picture based subtitle format used on DVDs
Duration : 1 h 28 min
Bit rate : 3 560 b/s
Count of elements : 763
Stream size : 2.26 MiB (0%)
Language : Russian
Default : No
Forced : No
Text #7
ID : 10
Format : VobSub
Codec ID : S_VOBSUB
Codec ID/Info : Picture based subtitle format used on DVDs
Duration : 1 h 28 min
Bit rate : 3 575 b/s
Count of elements : 763
Stream size : 2.27 MiB (0%)
Language : Spanish
Default : No
Forced : No
Text #8
ID : 11
Format : VobSub
Codec ID : S_VOBSUB
Codec ID/Info : Picture based subtitle format used on DVDs
Duration : 1 h 28 min
Bit rate : 3 797 b/s
Count of elements : 763
Stream size : 2.41 MiB (0%)
Language : Indonesian
Default : No
Forced : No
Text #9
ID : 12
Format : VobSub
Codec ID : S_VOBSUB
Codec ID/Info : Picture based subtitle format used on DVDs
Duration : 1 h 33 min
Bit rate : 3 536 b/s
Count of elements : 749
Stream size : 2.36 MiB (0%)
Language : Chinese
Default : No
Forced : No
Text #10
ID : 13
Format : VobSub
Codec ID : S_VOBSUB
Codec ID/Info : Picture based subtitle format used on DVDs
Duration : 1 h 33 min
Bit rate : 6 597 b/s
Count of elements : 1535
Stream size : 4.41 MiB (0%)
Language : Japanese
Default : No
Forced : No
Text #11
ID : 14
Format : VobSub
Codec ID : S_VOBSUB
Codec ID/Info : Picture based subtitle format used on DVDs
Duration : 1 h 33 min
Bit rate : 6 597 b/s
Count of elements : 1535
Stream size : 4.41 MiB (0%)
Language : Japanese
Default : No
Forced : No

Source Information

Unique ID : 205024832755346722816034696780769053079 (0x9A3E58B2900DC147BAAD08190C96C997)
Complete name : Pokémon Movie 12 Arceus and the Jewel of Life 2009 1080p Bluray Remux AVC TrueHD LPCM - BluDragon.mkv
Format : Matroska
Format version : Version 4
File size : 22.9 GiB
Duration : 1 h 34 min
Overall bit rate mode : Variable
Overall bit rate : 34.8 Mb/s
Movie name : [BluDragon]
Encoded date : UTC 2010-02-22 21:41:31
Writing application : mkvmerge v5.9.0 ('On The Loose') built on Dec 9 2012 15:37:01
Writing library : libebml v1.3.0 + libmatroska v1.4.0
Video
ID : 1
Format : AVC
Format/Info : Advanced Video Codec
Format profile : [email protected]
Format settings : CABAC / 2 Ref Frames
Format settings, CABAC : Yes
Format settings, RefFrames : 2 frames
Muxing mode : Container [email protected]
Codec ID : V_MPEG4/ISO/AVC
Duration : 1 h 34 min
Bit rate mode : Variable
Width : 1 920 pixels
Height : 1 080 pixels
Display aspect ratio : 16:9
Frame rate mode : Constant
Frame rate : 23.976 (24000/1001) FPS
Color space : YUV
Chroma subsampling : 4:2:0
Bit depth : 8 bits
Scan type : Progressive
Title : Pokémon Movie 12 : Arceus and the Jewel of Life
Language : Japanese
Default : No
Forced : No
Audio #1
ID : 2
Format : PCM
Codec ID : A_PCM/INT/LIT
Duration : 1 h 34 min
Channel(s) : 6 channels
Sampling rate : 48.0 kHz
Bit depth : 24 bits
Title : LPCM 5.1
Language : English
Default : Yes
Forced : No
Audio #2
ID : 3
Format : MLP FBA
Format/Info : Meridian Lossless Packing FBA
Commercial name : Dolby TrueHD
Codec ID : A_TRUEHD
Duration : 1 h 34 min
Bit rate mode : Variable
Maximum bit rate : 2 778 kb/s
Channel(s) : 6 channels
Channel layout : L R C LFE Ls Rs
Sampling rate : 48.0 kHz
Frame rate : 1 200.000 FPS (40 SPF)
Compression mode : Lossless
Title : TrueHD 5.1
Language : Japanese
Default : No
Forced : No
Text #1
ID : 4
Format : VobSub
Muxing mode : zlib
Codec ID : S_VOBSUB
Codec ID/Info : Picture based subtitle format used on DVDs
Title : VobSub: Dialogue
Language : English
Default : No
Forced : No
Text #2
ID : 5
Format : VobSub
Muxing mode : zlib
Codec ID : S_VOBSUB
Codec ID/Info : Picture based subtitle format used on DVDs
Title : VobSub: Dialogue
Language : Norwegian
Default : No
Forced : No
Text #3
ID : 6
Format : VobSub
Muxing mode : zlib
Codec ID : S_VOBSUB
Codec ID/Info : Picture based subtitle format used on DVDs
Title : VobSub: Dialogue
Language : German
Default : No
Forced : No
Text #4
ID : 7
Format : VobSub
Muxing mode : zlib
Codec ID : S_VOBSUB
Codec ID/Info : Picture based subtitle format used on DVDs
Title : VobSub: Dialogue
Language : Danish
Default : No
Forced : No
Text #5
ID : 8
Format : VobSub
Muxing mode : zlib
Codec ID : S_VOBSUB
Codec ID/Info : Picture based subtitle format used on DVDs
Title : VobSub: Dialogue
Language : Greek
Default : No
Forced : No
Text #6
ID : 9
Format : VobSub
Muxing mode : zlib
Codec ID : S_VOBSUB
Codec ID/Info : Picture based subtitle format used on DVDs
Title : VobSub: Dialogue
Language : Russian
Default : No
Forced : No
Text #7
ID : 10
Format : VobSub
Muxing mode : zlib
Codec ID : S_VOBSUB
Codec ID/Info : Picture based subtitle format used on DVDs
Title : VobSub: Dialogue
Language : Spanish
Default : No
Forced : No
Text #8
ID : 11
Format : VobSub
Muxing mode : zlib
Codec ID : S_VOBSUB
Codec ID/Info : Picture based subtitle format used on DVDs
Title : VobSub: Dialogue
Language : Indonesian
Default : No
Forced : No
Text #9
ID : 12
Format : VobSub
Muxing mode : zlib
Codec ID : S_VOBSUB
Codec ID/Info : Picture based subtitle format used on DVDs
Title : VobSub: Dialogue
Language : Chinese
Default : No
Forced : No
Text #10
ID : 13
Format : VobSub
Muxing mode : zlib
Codec ID : S_VOBSUB
Codec ID/Info : Picture based subtitle format used on DVDs
Title : VobSub: Dialogue
Language : Japanese
Default : No
Forced : No
Text #11
ID : 14
Format : VobSub
Muxing mode : zlib
Codec ID : S_VOBSUB
Codec ID/Info : Picture based subtitle format used on DVDs
Title : VobSub: Dialogue
Language : Japanese
Default : No
Forced : No

.........................................................................................................................................

We have no issue with individuals posting or re-uploading our torrents on a platform we aren't on. However, if this is something you'd like to do, please do so in a 'as-is' format. We ask that you do not create a new torrent, include all descriptions you see above including the SEV logo, tags, notes and screenshots. If you'd like to become a permanent poster on a website we don't post to, feel free to get in contact with a Sublime Encoded Video member.

We are recruiting/training new members for SEV & seedbox providers as well as people to help out with subtitles.
As you already know, we deliver quality, so you know the standard.
If you're interested, feel free to contact any of the team members.

Images:
https://i.postimg.cc/P5qW5hC2/SEV-logo.png|https://i.postimg.cc/DyZkfrXv/pokemonarceuss1.png|https://i.postimg.cc/LXCDx16D/pokemonarceuss2.png|https://i.postimg.cc/MTdPgLty/pokemonarceuss6.png|https://i.postimg.cc/cH4T7mZ6/pokemonarceuss7.png

Related at Pokemon - Arceus and the Jewel of Life 1080p BDRip x265 AAC 5 1 Goki :
Comments 1
Hellstaff
Please do the Family Guy TV show....
© 2019 www.gphi.it | Contacts | DMCA | Privacy Policy