» » Fairy Tail Movie 2 - Dragon Cry 720p BD
Language: English
Size: 700.5 MB
Rating: 4.9
Category: Dubbed
Votes: 984
Fairy Tail Movie 2 - Dragon Cry 720p BD
Files:
  • [60mbAnime.com] Fairy Tail Movie 2 - Dragon Cry (720p BD).mkv (700.5 MB)


Dragon Cry adalah sebuah artefak sihir yang memiliki kekuatan mematikan, yang dibentuk menjadi sebuah tongkat .

Dragon Cry adalah sebuah artefak sihir yang memiliki kekuatan mematikan, yang dibentuk menjadi sebuah tongkat sihir yang berisikan kemarahan dan keputus-asaan dari para naga yang telah mati. Saat ini, Dragon Cry dicuri dari Kerajaan Fiore oleh seorang pengkhianat keji bernama Zash Caine yang mengasingkan diri ke sebuah pulau kecil di Kerajaan Stella. Karena takut Dragon Cry jatuh ke tangan yang salah, Raja Fiore mengutus Fairy Tail untuk merebut kembali tongkat sihir itu. Misi ini juga mengungkap sesuatu yang mengerikan di jantung Kerajaan Stella.

Dragon Cry Subtitle Indonesia Anoboy, Samehadaku, Animeindo, nontonanime, nanime, Nonton Fairy Tail Movie 2: Dragon Cry Full Episode Sub Indo, Download Batch Indo, Streaming 480p 720p 360p

Fairy Tail Movie 2: Dragon Cry BD Subtitle Indonesia, Download Fairy Tail Movie 2: Dragon Cry Batch Subtitle Indonesia, Streaming Fairy Tail Movie 2: Dragon Cry Subtitle Indonesia, Streaming Fairy Tail Movie 2: Dragon Cry Subtitle Indonesia Anoboy, Samehadaku, Animeindo, nontonanime, nanime, Nonton Fairy Tail Movie 2: Dragon Cry Full Episode Sub Indo, Download Batch Indo, Streaming 480p 720p 360p, Mp4 Sub Indo, Fairy Tail Movie 2: Dragon Cry MKV Sub Indo, Fairy Tail Movie 2: Dragon Cry Full episode Subtitle Indonesia, Nonton Fairy Tail Movie 2: Dragon Cry Sub Indo, Streaming Fairy Tail . .

19 seconds ago. texas flip n move s13e12. 1 minute ago. stephen colbert 2019 11. 3 minutes ago. ex on the beach us s03e15 web x264 tbs. 4 minutes ago.

In this animated feature, Natsu and his friends travel to the island kingdom of Stella to find dark secrets, fight new enemies and save the world from destruction. Genre: Animation, Action, Adventure, Comedy, Fantasy.

Dragon Cry is a magical artifact of deadly power, formed into a staff by the fury and despair of dragons long gone. Frightened that the power has fallen into the wrong hands, the King of Fiore hastily sends Fairy Tail to retrieve the staff. Now, this power has been stolen from the hands of the Fiore kingdom by the nefarious traitor Zash Caine, who flees with it to the small island nation of Stella. But this task proves frightening as a shadowy secret lies in the heart of the kingdom of Stella

Download Fairy Tail Dragon Cry BD. Mau Wallpaper Anime HD yang keren? . 360p 180 Mb, 480p 302 Mb, 720p/MP4HD 575 Mb, 1080p/FullHD 905 Mb. Jika GD mengalami limit, silakan gunakan MF (mediafire) yang kencang juga.

Download Fairy Tail Dragon Cry BD. Mau Wallpaper Anime HD yang keren? Kunjungi QIURA. Kualitas video: Bluray, BD. Durasi: 1 Jam 24 menit 23 detik. Genres: Action, Adventure, Comedy, Magic, Fantasy, Shounen. 360p-v2 UF CU GD ZS MF NF. 480p-v2 UF CU GD SC MF NF.

Terima kasih sudah download Fairy Tail Movie 2: Dragon Cry Sub Indo di Batchindo.

Dragon Cry" - it's a magic artifact, that power can destroy the world. For a long time she was kept in the Kingdom of Fiore, but in the end was stolen by the Kingdom of Stella. The main characters (Natsu, Lucy, Gray, Erza, Wendy, Happy and Carla) penetrate into the Kingdom on a mission undercover. In the end they will have to deal with the King Animus and his entourage (Zach and Sonya). The purpose of the Animus to enslave the world? And Sonya was secretly trying to save the country? Expect exciting adventures on the sea of intrigue and save the world.

Alternative Titles Synonyms: Gekijouban Fairy Tail: Dragon Cry Japanese: 劇場版 FAIRY TAIL .

Alternative Titles Synonyms: Gekijouban Fairy Tail: Dragon Cry Japanese: 劇場版 FAIRY TAIL 『DRAGON CRY』.

General
Unique ID : 90593735412910803198417166862224842334 (0x4427B80200BE7947500F2DB94031DE5E)
Complete name : [60mbAnime.com] Fairy Tail Movie 2 - Dragon Cry (720p BD).mkv
Format : Matroska
Format version : Version 2
File size : 700 MiB
Duration : 1 h 24 min
Overall bit rate : 1 161 kb/s
Video
ID : 1
Format : HEVC
Format/Info : High Efficiency Video Coding
Format profile : [email protected]@Main
Codec ID : V_MPEGH/ISO/HEVC
Duration : 1 h 24 min
Bit rate : 734 kb/s
Width : 1 280 pixels
Height : 720 pixels
Display aspect ratio : 16:9
Frame rate mode : Constant
Frame rate : 23.976 (24000/1001) FPS
Color space : YUV
Chroma subsampling : 4:2:0
Bit depth : 8 bits
Bits/(Pixel*Frame) : 0.033
Stream size : 443 MiB (63%)
Default : Yes
Forced : No
Audio
ID : 2
Format : AAC
Format/Info : Advanced Audio Codec
Format profile : LC
Codec ID : A_AAC-2
Duration : 1 h 24 min
Bit rate : 420 kb/s
Channel(s) : 6 channels
Channel positions : Front: L C R, Side: L R, LFE
Sampling rate : 48.0 kHz
Frame rate : 46.875 FPS (1024 SPF)
Compression mode : Lossy
Delay relative to video : 9 ms
Stream size : 254 MiB (36%)
Language : English
Default : Yes
Forced : No
Text
ID : 3
Format : ASS
Codec ID : S_TEXT/ASS
Codec ID/Info : Advanced Sub Station Alpha
Duration : 1 h 22 min
Bit rate : 1 076 b/s
Count of elements : 5340
Compression mode : Lossless
Stream size : 649 KiB (0%)
Language : English
Default : Yes
Forced : No

Images:

Related at Fairy Tail Movie 2 - Dragon Cry :
Comments 2
Bulace
your website is piece of garbage..rncouldn't download shit even after trying 10 time ..fukin ads
Lbe
Last when you open my website?? There is no single ads on my website.rnCan't say about Filehost.
© 2019 www.gphi.it | Contacts | DMCA | Privacy Policy