» » Pokemon - The First Movie - Mewtwo Strikes Back Dubbed 1080p BDRip x265 10bit DTS-HD MA 2 0 - Goki 1998
Language: English
Size: 4.7 GB
Rating: 4.9
Category: Dubbed
Votes: 651
Pokemon - The First Movie - Mewtwo Strikes Back Dubbed 1080p BDRip x265 10bit DTS-HD MA 2 0 - Goki 1998
Files:
Pokemon - The First Movie - Mewtwo Strikes Back (1998) Dubbed 1080p BDRip x265 10bit DTS-HD MA 2.0 - Goki
  • Pokemon - The First Movie - Mewtwo Strikes Back (1998) Dubbed 1080p BDRip x265 10bit DTS-HD MA 2.0 - Goki.mkv (4.7 GB)
  • Pokemon - The First Movie - Mewtwo Strikes Back (1998) Dubbed 1080p BDRip x265 10bit DTS-HD MA 2.0 - Goki.nfo (7.5 KB)
  • Pokemon - The First Movie - Mewtwo Strikes Back (1998) Dubbed 1080p BDRip x265 10bit DTS-HD MA 2.0 - Goki-clearart.png (597.8 KB)
  • Pokemon - The First Movie - Mewtwo Strikes Back (1998) Dubbed 1080p BDRip x265 10bit DTS-HD MA 2.0 - Goki-clearlogo.png (55.2 KB)
  • Pokemon - The First Movie - Mewtwo Strikes Back (1998) Dubbed 1080p BDRip x265 10bit DTS-HD MA 2.0 - Goki-fanart.jpg (152.8 KB)
  • Pokemon - The First Movie - Mewtwo Strikes Back (1998) Dubbed 1080p BDRip x265 10bit DTS-HD MA 2.0 - Goki-logo.png (55.2 KB)
  • Pokemon - The First Movie - Mewtwo Strikes Back (1998) Dubbed 1080p BDRip x265 10bit DTS-HD MA 2.0 - Goki-poster.jpg (92.9 KB)


Many strange and wondrous legends evolve from the pursuit of life's mysteries. Simba vs Scar Full Fight The Lion King 2019 HD 1080P 60FPS - Продолжительность: 4:56 Father 2020 Recommended for you. 4:56.

Yourupload Choose This Server. Pokemon The First Movie - Mewtwo Strikes Back. IMDb: . 96 min/episode. Scientists genetically create a new Pokémon, Mewtwo, but the results are horrific and disastrous. Determined to prove its superiority, Mewtwo lures Ash, Pikachu and others into a Pokemon match like none before. This movie centers on English professor Amy as she uses her crime fiction expertise to unravel the case of a murdered college student faster than detective Travis, who ends up working with Amy to catch the killer. Country: United States.

2018-11-08 08:43 UTC. Is this only English dub or dual audio? Dark Mode: Toggle.

Bleach, One Punch Man or any other Anime Online Streaming Free. All Episodes & Movies in Dubbed and Subbed, HD and iPhone and android mobile friendly. Select a mirror and stream Pokemon: The First Movie - Mewtwo Strikes Back Episode 1 Subbed & Dubbed in HD.

Watch Naruto, Bleach, One Punch Man or any other Anime Online Streaming Free. High Quality Anime Online at Animegg.

Kissmovies only works on domain kissmovies. Pokemon: The First Movie - Mewtwo Strikes Back

Kissmovies only works on domain kissmovies. Pokemon: The First Movie - Mewtwo Strikes Back.

info ack-(1998)-2-0-Goki Anime. to Pokemon - The First Movie - Mewtwo Strikes B ck (1998) Dubbed 1080p BDRip x265 10bit DTS-HD MA . - Goki Anime. co Pokemon - The First Movie - Mewtwo Strikes Back (1998) Dubbed 1080p BDRip x265 10bit DTS-HD MA 2 0 - Goki Anime. ch ack-(1998)-2-0-Goki Anime.

Afdah is a web scraper coded to crawl and index online movie sites. Afdah do not host or upload any videos or movies other than indexing them. If you have any issue please contact us. Afdah.

So Mewtwo decides to find its own purpose in life, and carry out its revenge on humans by destroying life on earth by using a deadly storm.

Pokemon: The First Movie - Mewtwo Strikes Back (Dub); Pokemon: The First Movie; Gekijouban Pocket Monsters: Mewtwo Strikes Back; Pokemon Movie 1; Pokemon: The Origin of Mewtwo; Pokemon: The First Movie Kanzenban; Pokemon: The First Movie Complete Version; ポケットモンスター ミュウツーの逆襲. So Mewtwo decides to find its own purpose in life, and carry out its revenge on humans by destroying life on earth by using a deadly storm.


Pokemon - The First Movie - Mewtwo Strikes Back IMDB

Screenshots


Media Information

Unique ID : 12986586009826452726596468788418800335 (0x9C5201FED54D31BFB267465D7676ACF)
Complete name : Pokemon - The First Movie - Mewtwo Strikes Back Dubbed 1080p BDRip x265 10bit DTS-HD MA 2.0 - Goki.mkv
Format : Matroska
Format version : Version 4
File size : 4.66 GiB
Duration : 1 h 14 min
Overall bit rate mode : Variable
Overall bit rate : 8 953 kb/s
Movie name : Pokemon - The First Movie - Mewtwo Strikes Back Dubbed 1080p BDRip x265 10bit DTS-HD MA 2.0 - Goki
Encoded date : UTC 2019-09-04 07:58:49
Writing application : mkvmerge v28.2.0 ('The Awakening') 64-bit
Writing library : libebml v1.3.6 + libmatroska v1.4.9
Video
ID : 1
Format : HEVC
Format/Info : High Efficiency Video Coding
Format profile : Main [email protected]@Main
Codec ID : V_MPEGH/ISO/HEVC
Duration : 1 h 14 min
Bit rate : 7 391 kb/s
Width : 1 920 pixels
Height : 1 080 pixels
Display aspect ratio : 16:9
Frame rate mode : Constant
Frame rate : 23.976 (24000/1001) FPS
Color space : YUV
Chroma subsampling : 4:2:0
Bit depth : 10 bits
Bits/(Pixel*Frame) : 0.149
Stream size : 3.85 GiB (83%)
Writing library : x265 2.9+8-27d8424c799d:[Windows][MSVC 1915][64 bit] 10bit
Encoding settings : cpuid=1111039 / frame-threads=2 / numa-pools=4 / wpp / no-pmode / no-pme / no-psnr / no-ssim / log-level=2 / input-csp=1 / input-res=1920x1080 / interlace=0 / total-frames=0 / level-idc=0 / high-tier=1 / uhd-bd=0 / ref=4 / no-allow-non-conformance / no-repeat-headers / annexb / no-aud / no-hrd / info / hash=0 / no-temporal-layers / open-gop / min-keyint=23 / keyint=250 / gop-lookahead=0 / bframes=8 / b-adapt=2 / b-pyramid / bframe-bias=0 / rc-lookahead=100 / lookahead-slices=4 / scenecut=40 / radl=0 / no-intra-refresh / ctu=64 / min-cu-size=8 / no-rect / no-amp / max-tu-size=32 / tu-inter-depth=2 / tu-intra-depth=2 / limit-tu=4 / rdoq-level=2 / dynamic-rd=0.00 / no-ssim-rd / signhide / no-tskip / nr-intra=0 / nr-inter=0 / no-constrained-intra / no-strong-intra-smoothing / max-merge=3 / limit-refs=2 / limit-modes / me=3 / subme=5 / merange=57 / temporal-mvp / weightp / weightb / no-analyze-src-pics / deblock=0:0 / sao / no-sao-non-deblock / rd=6 / no-early-skip / rskip / no-fast-intra / no-tskip-fast / no-cu-lossless / b-intra / no-splitrd-skip / rdpenalty=0 / psy-rd=1.30 / psy-rdoq=2.00 / no-rd-refine / no-lossless / cbqpoffs=0 / crqpoffs=0 / rc=crf / crf=19.0 / qcomp=0.60 / qpstep=4 / stats-write=0 / stats-read=0 / ipratio=1.40 / pbratio=1.30 / aq-mode=2 / aq-strength=1.10 / cutree / zone-count=0 / no-strict-cbr / qg-size=32 / no-rc-grain / qpmax=69 / qpmin=0 / no-const-vbv / sar=1 / overscan=0 / videoformat=5 / range=0 / colorprim=2 / transfer=2 / colormatrix=2 / chromaloc=0 / display-window=0 / max-cll=0,0 / min-luma=0 / max-luma=1023 / log2-max-poc-lsb=8 / vui-timing-info / vui-hrd-info / slices=1 / no-opt-qp-pps / no-opt-ref-list-length-pps / no-multi-pass-opt-rps / scenecut-bias=0.05 / no-opt-cu-delta-qp / no-aq-motion / no-hdr / no-hdr-opt / no-dhdr10-opt / no-idr-recovery-sei / analysis-reuse-level=5 / scale-factor=0 / refine-intra=0 / refine-inter=0 / refine-mv=0 / no-limit-sao / ctu-info=0 / no-lowpass-dct / refine-mv-type=0 / copy-pic=1 / max-ausize-factor=1.0 / no-dynamic-refine / no-single-sei
Language : English
Default : Yes
Forced : No
Audio
ID : 2
Format : DTS XLL
Format/Info : Digital Theater Systems
Commercial name : DTS-HD Master Audio
Codec ID : A_DTS
Duration : 1 h 14 min
Bit rate mode : Variable
Bit rate : 1 561 kb/s
Channel(s) : 2 channels
Channel layout : L R
Sampling rate : 48.0 kHz
Frame rate : 93.750 FPS (512 SPF)
Bit depth : 16 bits
Compression mode : Lossless
Stream size : 832 MiB (17%)
Title : 2.0
Language : English
Default : Yes
Forced : No
Text
ID : 3
Format : UTF-8
Codec ID : S_TEXT/UTF8
Codec ID/Info : UTF-8 Plain Text
Duration : 1 h 13 min
Bit rate : 50 b/s
Count of elements : 1375
Stream size : 27.4 KiB (0%)
Language : English
Default : No
Forced : No
Menu
00:00:00.000 : :Chapter 1
00:09:55.136 : :Chapter 2
00:15:21.546 : :Chapter 3
00:19:00.056 : :Chapter 4
00:24:52.491 : :Chapter 5
00:30:01.925 : :Chapter 6
00:33:28.215 : :Chapter 7
00:39:29.158 : :Chapter 8
00:44:23.578 : :Chapter 9
00:50:00.623 : :Chapter 10
00:55:08.764 : :Chapter 11
01:01:38.111 : :Chapter 12
01:07:48.940 : :Chapter 13
01:10:17.380 : :Chapter 14
01:14:25.002 : :Chapter 15

Source Information

Unique ID : 228198765654747456539672856637514328702 (0xABAD7BCD83FAD0889C1D4A3CB75A2A7E)
Complete name : Pokemon.Mewtwo.Strikes.Back.1998.1080p.BluRay.REMUX.AVC.DTS-HD.MA.2.0-Mx.mkv
Format : Matroska
Format version : Version 4
File size : 16.4 GiB
Duration : 1 h 14 min
Overall bit rate mode : Variable
Overall bit rate : 31.5 Mb/s
Encoded date : UTC 2016-11-13 17:12:51
Writing application : mkvmerge v9.5.0 ('Quiet Fire') 64bit
Writing library : libebml v1.3.4 + libmatroska v1.4.5
Video
ID : 1
Format : AVC
Format/Info : Advanced Video Codec
Format profile : [email protected]
Format settings : CABAC / 4 Ref Frames
Format settings, CABAC : Yes
Format settings, RefFrames : 4 frames
Codec ID : V_MPEG4/ISO/AVC
Duration : 1 h 14 min
Bit rate mode : Variable
Bit rate : 30.0 Mb/s
Maximum bit rate : 35.0 Mb/s
Width : 1 920 pixels
Height : 1 080 pixels
Display aspect ratio : 16:9
Frame rate mode : Constant
Frame rate : 23.976 (24000/1001) FPS
Standard : NTSC
Color space : YUV
Chroma subsampling : 4:2:0
Bit depth : 8 bits
Scan type : Progressive
Bits/(Pixel*Frame) : 0.603
Stream size : 15.6 GiB (95%)
Title : MPEG-4 AVC Video / 29980 kbps / 1080p / 23.976 fps / 16:9 / High Profile 4.1
Language : English
Default : Yes
Forced : No
Color range : Limited
Color primaries : BT.709
Transfer characteristics : BT.709
Matrix coefficients : BT.709
Audio
ID : 2
Format : DTS XLL
Format/Info : Digital Theater Systems
Commercial name : DTS-HD Master Audio
Codec ID : A_DTS
Duration : 1 h 14 min
Bit rate mode : Variable
Bit rate : 1 561 kb/s
Channel(s) : 2 channels
Channel layout : L R
Sampling rate : 48.0 kHz
Frame rate : 93.750 FPS (512 SPF)
Bit depth : 16 bits
Compression mode : Lossless
Stream size : 832 MiB (5%)
Title : DTS-HD Master Audio / 2.0 / 48 kHz / 1561 kbps / 16-bit
Language : English
Default : Yes
Forced : No
Menu
00:00:00.000 : en:Chapter 1
00:09:55.136 : en:Chapter 2
00:15:21.546 : en:Chapter 3
00:19:00.056 : en:Chapter 4
00:24:52.491 : en:Chapter 5
00:30:01.925 : en:Chapter 6
00:33:28.215 : en:Chapter 7
00:39:29.158 : en:Chapter 8
00:44:23.578 : en:Chapter 9
00:50:00.623 : en:Chapter 10
00:55:08.764 : en:Chapter 11
01:01:38.111 : en:Chapter 12
01:07:48.940 : en:Chapter 13
01:10:17.380 : en:Chapter 14
01:14:25.002 : en:Chapter 15

.........................................................................................................................................

Images:
https://i.postimg.cc/rFvtHwWJ/Goki2.png|https://i.postimg.cc/DzsqTjpR/pokemontfmmtsbs1.png|https://i.postimg.cc/mkhkbh2h/pokemontfmmtsbs2.png|https://i.postimg.cc/gcw6FBws/pokemontfmmtsbs3.png|https://i.postimg.cc/bYMNxywH/pokemontfmmtsbs4.png

Related at Pokemon - The First Movie - Mewtwo Strikes Back Dubbed 1080p BDRip x265 10bit DTS-HD MA 2 0 - Goki:
© 2019 www.gphi.it | Contacts | DMCA | Privacy Policy