» » Pokemon the Movie 2000 1080p BDRip x265 10bit AAC 2 0 - Goki 1999
Language: English
Size: 6.4 GB
Rating: 4.9
Category: Dubbed
Votes: 879
Pokemon the Movie 2000 1080p BDRip x265 10bit AAC 2 0 - Goki 1999
Files:
Pokemon the Movie 2000 (1999) 1080p BDRip x265 10bit AAC 2.0 - Goki
  • Pokemon the Movie 2000 (1999) 1080p BDRip x265 10bit AAC 2.0 - Goki.mkv (6.4 GB)
  • Pokemon the Movie 2000 (1999) 1080p BDRip x265 10bit AAC 2.0 - Goki.nfo (7.8 KB)
  • Pokemon the Movie 2000 (1999) 1080p BDRip x265 10bit AAC 2.0 - Goki-fanart.jpg (193.8 KB)
  • Pokemon the Movie 2000 (1999) 1080p BDRip x265 10bit AAC 2.0 - Goki-poster.jpg (124.6 KB)


Unique ID : 220682142251259036 (3CD8331BAC949C) Complete name : Pokemon the Movie 2000 (1999) 1080p BDRip x265 10bit AAC . - Goki.

Download Pokemon the Movie 2000 (1999) 1080p BDRip x265 10bit AAC . - Goki torrent or any other torrent from English-translated category. Pokemon the Movie 2000 (1999) 1080p BDRip x265 10bit AAC . - Goki (. 2 GB). 2 GB. 6 KB. - Goki-fanart. 19. 4 KB. - Goki-poster.

Pokémon The Movie 2000: The Power of One is a 1999 Japanese animated fantasy film and the second movie in the Pokémon anime franchise.

info 00-(1999)bit-AAC-2-0-Goki Movies. to Pokemon the Movie 2000 (1999) 1080p BDRip x265 10bit AAC . - Goki Anime. co Pokemon the Movie 2000 (1999) 1080p BDRip x265 10bit AAC 2 0 - Goki Movies. ch 00-(1999)bit-AAC-2-0-Goki Anime. eu Pokemon the Movie 2000 (1999) 1080p BDRip x265 10bit AAC . - Goki video.

Pokemon the Movie 2000 (1999) 1080p BDRip x265 10bit AAC 2 0 - Goki. torrent files directly from the indexed sites

Pokemon the Movie 2000 (1999) 1080p BDRip x265 10bit AAC 2 0 - Goki. 10 Sep. GB. 1. Pokemon the Movie 2000 (1999) 1080p BDRip x265 10bit DTS-HD M. 0 Sep. Pokemon 3 The Movie 2000 DUBBED 1080p BluRay REMUX-DDB. torrent files directly from the indexed sites.

Скачать с помощью Mediaget. com/The Green Mile p BDRip x265 MP4 AAC-INFERNO.

Genres: Crime, Drama, Fantasy, Mystery. Скачать с помощью Mediaget.

All Music Audio books Sound clips FLAC Other Movies Movies DVDR Music videos Movie clips TV shows Handheld HD - Movies HD - TV shows 3D Other Windows Mac UNIX . The Fly 1986 BDRip x265 10bit overall 2691 bitrate. Get this torrent PLAY/STREAM TORRENT.

All Music Audio books Sound clips FLAC Other Movies Movies DVDR Music videos Movie clips TV shows Handheld HD - Movies HD - TV shows 3D Other Windows Mac UNIX Handheld IOS (iPad/iPhone) Android Other OS PC Mac PSx XBOX360 Wii Handheld IOS (iPad/iPhone) Android Other Movies Movies DVDR Pictures Games HD - Movies Movie clips Other E-books Comics Pictures Covers. Details for this torrent.


Pokemon the Movie 2000 IMDB

Screenshots


Media Information

Unique ID : 41997539231899795465220682142251259036 (0x1F986E8D0C6AAF28363CD8331BAC949C)
Complete name : Pokemon the Movie 2000 1080p BDRip x265 10bit AAC 2.0 - Goki.mkv
Format : Matroska
Format version : Version 4
File size : 6.42 GiB
Duration : 1 h 20 min
Overall bit rate : 11.5 Mb/s
Movie name : Pokemon the Movie 2000 1080p BDRip x265 10bit AAC 2.0 - Goki
Encoded date : UTC 2019-09-10 02:34:17
Writing application : mkvmerge v28.2.0 ('The Awakening') 64-bit
Writing library : libebml v1.3.6 + libmatroska v1.4.9
Video
ID : 1
Format : HEVC
Format/Info : High Efficiency Video Coding
Format profile : Main [email protected]@Main
Codec ID : V_MPEGH/ISO/HEVC
Duration : 1 h 20 min
Bit rate : 11.3 Mb/s
Width : 1 920 pixels
Height : 1 080 pixels
Display aspect ratio : 16:9
Frame rate mode : Constant
Frame rate : 23.976 (24000/1001) FPS
Color space : YUV
Chroma subsampling : 4:2:0
Bit depth : 10 bits
Bits/(Pixel*Frame) : 0.228
Stream size : 6.34 GiB (99%)
Writing library : x265 2.9+8-27d8424c799d:[Windows][MSVC 1915][64 bit] 10bit
Encoding settings : cpuid=1111039 / frame-threads=2 / numa-pools=4 / wpp / no-pmode / no-pme / no-psnr / no-ssim / log-level=2 / input-csp=1 / input-res=1920x1080 / interlace=0 / total-frames=0 / level-idc=0 / high-tier=1 / uhd-bd=0 / ref=4 / no-allow-non-conformance / no-repeat-headers / annexb / no-aud / no-hrd / info / hash=0 / no-temporal-layers / open-gop / min-keyint=23 / keyint=250 / gop-lookahead=0 / bframes=8 / b-adapt=2 / b-pyramid / bframe-bias=0 / rc-lookahead=100 / lookahead-slices=4 / scenecut=40 / radl=0 / no-intra-refresh / ctu=64 / min-cu-size=8 / no-rect / no-amp / max-tu-size=32 / tu-inter-depth=2 / tu-intra-depth=2 / limit-tu=4 / rdoq-level=2 / dynamic-rd=0.00 / no-ssim-rd / signhide / no-tskip / nr-intra=0 / nr-inter=0 / no-constrained-intra / no-strong-intra-smoothing / max-merge=3 / limit-refs=2 / limit-modes / me=3 / subme=5 / merange=57 / temporal-mvp / weightp / weightb / no-analyze-src-pics / deblock=0:0 / sao / no-sao-non-deblock / rd=6 / no-early-skip / rskip / no-fast-intra / no-tskip-fast / no-cu-lossless / b-intra / no-splitrd-skip / rdpenalty=0 / psy-rd=1.30 / psy-rdoq=2.00 / no-rd-refine / no-lossless / cbqpoffs=0 / crqpoffs=0 / rc=crf / crf=18.0 / qcomp=0.60 / qpstep=4 / stats-write=0 / stats-read=0 / ipratio=1.40 / pbratio=1.30 / aq-mode=2 / aq-strength=1.10 / cutree / zone-count=0 / no-strict-cbr / qg-size=32 / no-rc-grain / qpmax=69 / qpmin=0 / no-const-vbv / sar=1 / overscan=0 / videoformat=5 / range=0 / colorprim=2 / transfer=2 / colormatrix=2 / chromaloc=0 / display-window=0 / max-cll=0,0 / min-luma=0 / max-luma=1023 / log2-max-poc-lsb=8 / vui-timing-info / vui-hrd-info / slices=1 / no-opt-qp-pps / no-opt-ref-list-length-pps / no-multi-pass-opt-rps / scenecut-bias=0.05 / no-opt-cu-delta-qp / no-aq-motion / no-hdr / no-hdr-opt / no-dhdr10-opt / no-idr-recovery-sei / analysis-reuse-level=5 / scale-factor=0 / refine-intra=0 / refine-inter=0 / refine-mv=0 / no-limit-sao / ctu-info=0 / no-lowpass-dct / refine-mv-type=0 / copy-pic=1 / max-ausize-factor=1.0 / no-dynamic-refine / no-single-sei
Language : English
Default : Yes
Forced : No
Audio
ID : 2
Format : AAC LC
Format/Info : Advanced Audio Codec Low Complexity
Codec ID : A_AAC-2
Duration : 1 h 20 min
Bit rate : 140 kb/s
Channel(s) : 2 channels
Channel layout : L R
Sampling rate : 48.0 kHz
Frame rate : 46.875 FPS (1024 SPF)
Compression mode : Lossy
Stream size : 80.0 MiB (1%)
Title : 2.0
Language : English
Default : Yes
Forced : No
Text
ID : 3
Format : UTF-8
Codec ID : S_TEXT/UTF8
Codec ID/Info : UTF-8 Plain Text
Duration : 1 h 19 min
Bit rate : 34 b/s
Count of elements : 557
Stream size : 20.1 KiB (0%)
Language : English
Default : No
Forced : No
Menu
00:00:00.000 : :Chapter 1
00:04:47.621 : :Chapter 2
00:10:14.239 : :Chapter 3
00:18:53.007 : :Chapter 4
00:26:29.630 : :Chapter 5
00:34:14.886 : :Chapter 6
00:41:54.262 : :Chapter 7
00:49:55.075 : :Chapter 8
00:56:30.429 : :Chapter 9
01:03:50.952 : :Chapter 10
01:12:09.575 : :Chapter 11
01:15:38.534 : :Chapter 12
01:20:01.922 : :Chapter 13

Source Information

Unique ID : 211199146986138793688329182823297577714 (0x9EE379E45FCF37508911BC05F52FF2F2)
Complete name : Pokemon.Power.of.One.1999.1080p.BluRay.REMUX.AVC.DTS-HD.MA.2.0-Mx.mkv
Format : Matroska
Format version : Version 4
File size : 17.6 GiB
Duration : 1 h 20 min
Overall bit rate mode : Variable
Overall bit rate : 31.5 Mb/s
Encoded date : UTC 2016-11-13 17:17:59
Writing application : mkvmerge v9.5.0 ('Quiet Fire') 64bit
Writing library : libebml v1.3.4 + libmatroska v1.4.5
Video
ID : 1
Format : AVC
Format/Info : Advanced Video Codec
Format profile : [email protected]
Format settings : CABAC / 4 Ref Frames
Format settings, CABAC : Yes
Format settings, RefFrames : 4 frames
Codec ID : V_MPEG4/ISO/AVC
Duration : 1 h 20 min
Bit rate mode : Variable
Bit rate : 29.9 Mb/s
Maximum bit rate : 35.0 Mb/s
Width : 1 920 pixels
Height : 1 080 pixels
Display aspect ratio : 16:9
Frame rate mode : Constant
Frame rate : 23.976 (24000/1001) FPS
Standard : NTSC
Color space : YUV
Chroma subsampling : 4:2:0
Bit depth : 8 bits
Scan type : Progressive
Bits/(Pixel*Frame) : 0.602
Stream size : 16.7 GiB (95%)
Title : MPEG-4 AVC Video / 29932 kbps / 1080p / 23.976 fps / 16:9 / High Profile 4.1
Language : English
Default : Yes
Forced : No
Color range : Limited
Color primaries : BT.709
Transfer characteristics : BT.709
Matrix coefficients : BT.709
Audio
ID : 2
Format : DTS XLL
Format/Info : Digital Theater Systems
Commercial name : DTS-HD Master Audio
Codec ID : A_DTS
Duration : 1 h 20 min
Bit rate mode : Variable
Bit rate : 1 601 kb/s
Channel(s) : 2 channels
Channel layout : L R
Sampling rate : 48.0 kHz
Frame rate : 93.750 FPS (512 SPF)
Bit depth : 16 bits
Compression mode : Lossless
Stream size : 917 MiB (5%)
Title : DTS-HD Master Audio / 2.0 / 48 kHz / 1601 kbps / 16-bit
Language : English
Default : Yes
Forced : No
Menu
00:00:00.000 : en:Chapter 1
00:04:47.621 : en:Chapter 2
00:10:14.239 : en:Chapter 3
00:18:53.007 : en:Chapter 4
00:26:29.630 : en:Chapter 5
00:34:14.886 : en:Chapter 6
00:41:54.262 : en:Chapter 7
00:49:55.075 : en:Chapter 8
00:56:30.429 : en:Chapter 9
01:03:50.952 : en:Chapter 10
01:12:09.575 : en:Chapter 11
01:15:38.534 : en:Chapter 12
01:20:01.922 : en:Chapter 13

.........................................................................................................................................

Images:
https://i.postimg.cc/rFvtHwWJ/Goki2.png|https://i.postimg.cc/J4zbdn8K/pokemontm20001.png|https://i.postimg.cc/NFzLnQ8P/pokemontm20002.png|https://i.postimg.cc/nznsjRcT/pokemontm20003.png|https://i.postimg.cc/gJphyc4V/pokemontm20004.png

Related at Pokemon the Movie 2000 1080p BDRip x265 10bit AAC 2 0 - Goki:
© 2019 www.gphi.it | Contacts | DMCA | Privacy Policy