» » Dragon Ball Z Resurrection F DUBBED 1080p BDRip x265 AC3 5 1 Goki 2015
Language: English
Size: 5.1 GB
Rating: 4.9
Category: Dubbed
Votes: 185
Dragon Ball Z Resurrection F DUBBED 1080p BDRip x265 AC3 5 1 Goki 2015
Files:
Dragon Ball Z Resurrection F (2015) DUBBED 1080p BDRip x265 AC3 5.1 Goki [SEV]
  • Dragon Ball Z Resurrection F (2015) DUBBED 1080p BDRip x265 AC3 5.1 Goki [SEV].mkv (5.1 GB)
  • Dragon Ball Z Resurrection F (2015) DUBBED 1080p BDRip x265 AC3 5.1 Goki [SEV].nfo (5.5 KB)
  • Dragon Ball Z Resurrection F (2015) DUBBED 1080p BDRip x265 AC3 5.1 Goki [SEV]-banner.jpg (263.1 KB)
  • Dragon Ball Z Resurrection F (2015) DUBBED 1080p BDRip x265 AC3 5.1 Goki [SEV]-clearart.png (611.5 KB)
  • Dragon Ball Z Resurrection F (2015) DUBBED 1080p BDRip x265 AC3 5.1 Goki [SEV]-clearlogo.png (87.0 KB)
  • Dragon Ball Z Resurrection F (2015) DUBBED 1080p BDRip x265 AC3 5.1 Goki [SEV]-disc.png (960.3 KB)
  • Dragon Ball Z Resurrection F (2015) DUBBED 1080p BDRip x265 AC3 5.1 Goki [SEV]-fanart.jpg (446.9 KB)
  • Dragon Ball Z Resurrection F (2015) DUBBED 1080p BDRip x265 AC3 5.1 Goki [SEV]-logo.png (87.0 KB)
  • Dragon Ball Z Resurrection F (2015) DUBBED 1080p BDRip x265 AC3 5.1 Goki [SEV]-poster.jpg (97.4 KB)
  • Dragon Ball Z Resurrection F (2015) DUBBED 1080p BDRip x265 AC3 5.1 Goki [SEV]-thumb.jpg (614.9 KB)


But, Sorbet and Tagoma, previous Freeza’s servants, decide to revive his leader using the Dragon balls.

After The god of destruction Beerus decided to not destroy the Earth, the planet is back again in peace. But, Sorbet and Tagoma, previous Freeza’s servants, decide to revive his leader using the Dragon balls. Succesful in his plan, Freeza decides to return to Earth to start his revenge against the saiyans who humillated him once. 720P WEB-DL X264 AC3 .

Dragon Ball Super Movie - Broly (BDRip 720p Hi444PP QAAC) RAW . Super Dragon Ball Heroes - 01 .mkv. 9 GB. 1. 256. Dragon Ball Super Movie - Broly (BDRip 1080p Hi10P FLAC) RAW. Dragon Ball Z ~ Movie 15 ~ Resurrection 'F' . 8 GB. 0. 35. Dragon Ball Super Movie - Broly (Dual Audio) (BDRip 1080p Hi10P TrueHDx2).

337 00: 20: 3. 65 Frieza was resurrected and is en route to Earth right now! 335 00: 20: 3. 29 No time to debate cosmic theology with you! 334 00: 20: 2. 47 But seriously.

New Document Microsoft Word. Prezentare Mercedes-Benz, Vasile Cristian,1733. The Unwinding: An Inner History of the New America. 337 00: 20: 3.

Watch Dragon Ball Z Movie 15: Resurrection F online English Dubbed free with HQ, high quailty. Stream movie Dragon Ball Z Movie 15: Resurrection F English version. An Earth where peace has arrived. However, remnants of Frieza's army Sorbet and Tagoma (from the Japanese word for 'egg') arrive on the planet. Their goal is to revive Frieza with the dragon balls.

Dragon Ball Z: Resurrection 'F' (2015) HD 1080p Online Free. But, Sorbet and Tagoma, previous Freeza's servants, decide to revive his leader using the Dragon balls. Watch Dragon Ball Z: Resurrection 'F' (2015). After The god of destruction Beerus decided to not destroy the Earth, the planet is back again in peace.

AC3-EVO torrent or any other torrent from the Video Movies. SUBTiTLES: N/A. AUDiO: 384 CBR AC-3. why is the res so low should be 1080p. Phatfish at 2015-10-11 13:46 CET: Weeaboo cancer. GREETS: Srkfan & AQOS. Dragon Ball - Em busca do poder (1996) Dublado (720p).

Anime - Sub Anime - Raw Anime - Dub LA - Sub LA - Raw Light Novel Manga - TLed Manga - Raw- Lossy- Lossless- Video Games Applications Pictures Adult Video Other.

Anime - Sub Anime - Raw Anime - Dub LA - Sub LA - Raw Light Novel Manga - TLed Manga - Raw ♫ - Lossy ♫ - Lossless ♫ - Video Games Applications Pictures Adult Video Other.

sample bluray-sample-mkv.

Please, upgrade your browser, OS or both. sample bluray-sample-mkv. titulky english-srt titulky jsou prej spatny, tak sorry, ja to nekontroluju davej palec dolu titulkam a ne filmu retarde. Zobrazit/skrýt více obsahu.

2015, Action, Adventure, Animation, Fantasy. They succeed, and Frieza subsequently seeks revenge on the Saiyans.


Screenshots


Media Information

Unique ID : 111925636882537659453927595046107207832 (0x543417F3A8553F7BDDC1C861F575D898)
Complete name : Dragon Ball Z Resurrection F DUBBED 1080p BDRip x265 AC3 5.1 Goki [SEV].mkv
Format : Matroska
Format version : Version 4
File size : 5.07 GiB
Duration : 1 h 33 min
Overall bit rate : 7 725 kb/s
Movie name : Dragon Ball Z Resurrection F DUBBED 1080p BDRip x265 AC3 5.1 Goki [SEV]
Encoded date : UTC 2019-03-20 09:23:11
Writing application : mkvmerge v28.2.0 ('The Awakening') 64-bit
Writing library : libebml v1.3.6 + libmatroska v1.4.9
Video
ID : 1
Format : HEVC
Format/Info : High Efficiency Video Coding
Format profile : Main [email protected]@Main
Codec ID : V_MPEGH/ISO/HEVC
Duration : 1 h 33 min
Bit rate : 7 340 kb/s
Width : 1 920 pixels
Height : 1 080 pixels
Display aspect ratio : 16:9
Frame rate mode : Constant
Frame rate : 23.976 (24000/1001) FPS
Color space : YUV
Chroma subsampling : 4:2:0
Bit depth : 10 bits
Bits/(Pixel*Frame) : 0.148
Stream size : 4.82 GiB (95%)
Writing library : x265 2.9+8-27d8424c799d:[Windows][MSVC 1915][64 bit] 10bit
Encoding settings : cpuid=1111039 / frame-threads=2 / numa-pools=4 / wpp / no-pmode / no-pme / no-psnr / no-ssim / log-level=2 / input-csp=1 / input-res=1920x1080 / interlace=0 / total-frames=0 / level-idc=0 / high-tier=1 / uhd-bd=0 / ref=4 / no-allow-non-conformance / no-repeat-headers / annexb / no-aud / no-hrd / info / hash=0 / no-temporal-layers / open-gop / min-keyint=23 / keyint=250 / gop-lookahead=0 / bframes=8 / b-adapt=2 / b-pyramid / bframe-bias=0 / rc-lookahead=100 / lookahead-slices=4 / scenecut=40 / radl=0 / no-intra-refresh / ctu=64 / min-cu-size=8 / no-rect / no-amp / max-tu-size=32 / tu-inter-depth=2 / tu-intra-depth=2 / limit-tu=4 / rdoq-level=2 / dynamic-rd=0.00 / no-ssim-rd / signhide / no-tskip / nr-intra=0 / nr-inter=0 / no-constrained-intra / no-strong-intra-smoothing / max-merge=3 / limit-refs=2 / limit-modes / me=3 / subme=5 / merange=57 / temporal-mvp / weightp / weightb / no-analyze-src-pics / deblock=0:0 / sao / no-sao-non-deblock / rd=6 / no-early-skip / rskip / no-fast-intra / no-tskip-fast / no-cu-lossless / b-intra / no-splitrd-skip / rdpenalty=0 / psy-rd=1.30 / psy-rdoq=2.00 / no-rd-refine / no-lossless / cbqpoffs=0 / crqpoffs=0 / rc=crf / crf=18.0 / qcomp=0.60 / qpstep=4 / stats-write=0 / stats-read=0 / ipratio=1.40 / pbratio=1.30 / aq-mode=2 / aq-strength=1.10 / cutree / zone-count=0 / no-strict-cbr / qg-size=32 / no-rc-grain / qpmax=69 / qpmin=0 / no-const-vbv / sar=1 / overscan=0 / videoformat=5 / range=0 / colorprim=2 / transfer=2 / colormatrix=2 / chromaloc=0 / display-window=0 / max-cll=0,0 / min-luma=0 / max-luma=1023 / log2-max-poc-lsb=8 / vui-timing-info / vui-hrd-info / slices=1 / no-opt-qp-pps / no-opt-ref-list-length-pps / no-multi-pass-opt-rps / scenecut-bias=0.05 / no-opt-cu-delta-qp / no-aq-motion / no-hdr / no-hdr-opt / no-dhdr10-opt / no-idr-recovery-sei / analysis-reuse-level=5 / scale-factor=0 / refine-intra=0 / refine-inter=0 / refine-mv=0 / no-limit-sao / ctu-info=0 / no-lowpass-dct / refine-mv-type=0 / copy-pic=1 / max-ausize-factor=1.0 / no-dynamic-refine / no-single-sei
Language : English
Default : Yes
Forced : No
Audio
ID : 2
Format : AC-3
Format/Info : Audio Coding 3
Commercial name : Dolby Digital
Codec ID : A_AC3
Duration : 1 h 33 min
Bit rate mode : Constant
Bit rate : 384 kb/s
Channel(s) : 6 channels
Channel layout : L R C LFE Ls Rs
Sampling rate : 48.0 kHz
Frame rate : 31.250 FPS (1536 SPF)
Bit depth : 16 bits
Compression mode : Lossy
Stream size : 258 MiB (5%)
Title : English AC3 5.1
Language : English
Service kind : Complete Main
Default : Yes
Forced : No
Text
ID : 3
Format : UTF-8
Codec ID : S_TEXT/UTF8
Codec ID/Info : UTF-8 Plain Text
Duration : 1 h 31 min
Bit rate : 68 b/s
Count of elements : 1371
Stream size : 45.8 KiB (0%)
Title : English SRT
Language : English
Default : No
Forced : No
Menu #1
00:00:00.000 : en:Chapter 01
00:03:59.781 : en:Chapter 02
00:08:08.946 : en:Chapter 03
00:11:24.392 : en:Chapter 04
00:18:09.088 : en:Chapter 05
00:25:42.499 : en:Chapter 06
00:33:17.620 : en:Chapter 07
00:38:44.030 : en:Chapter 08
00:43:08.419 : en:Chapter 09
00:50:59.973 : en:Chapter 10
00:57:27.277 : en:Chapter 11
01:03:13.915 : en:Chapter 12
01:08:56.757 : en:Chapter 13
01:12:07.740 : en:Chapter 14
01:16:48.895 : en:Chapter 15
01:21:49.946 : en:Chapter 16
01:23:53.570 : en:Chapter 17
01:26:42.864 : en:Chapter 18
01:29:21.356 : en:Chapter 19
01:33:05.413 : en:Chapter 20

Source

Blu-ray REMUX RARBG

.........................................................................................................................................

We have no issue with individuals posting or re-uploading our torrents on a platform we aren't on. However, if this is something you'd like to do, please do so in a 'as-is' format. We ask that you do not create a new torrent, include all descriptions you see above including the SEV logo, tags, notes and screenshots. If you'd like to become a permanent poster on a website we don't post to, feel free to get in contact with a Sublime Encoded Video member.

We are recruiting/training new members for SEV & seedbox providers as well as people to help out with subtitles.
As you already know, we deliver quality, so you know the standard.
If you're interested, feel free to contact any of the team members.

Images:
https://i.postimg.cc/P5qW5hC2/SEV-logo.png|https://i.postimg.cc/MpbyhTDg/dbzrfs1.png|https://i.postimg.cc/9MzZRBhj/dbzrfs2.png|https://i.postimg.cc/qRYn8CJ6/dbzrfs3.png|https://i.postimg.cc/F1XL65J9/dbzrfs4.png

Related at Dragon Ball Z Resurrection F DUBBED 1080p BDRip x265 AC3 5 1 Goki :
© 2019 www.gphi.it | Contacts | DMCA | Privacy Policy