» » Uchiage Hanabi, Shita kara Miru ka? Yoko kara Miru ka? Chinese Hardsubs WebRip 1024x720 x264 AAC
Language: Japanese
Size: 544.7 MB
Rating: 4.9
Category: Raw
Votes: 884
Uchiage Hanabi, Shita kara Miru ka? Yoko kara Miru ka? Chinese Hardsubs WebRip 1024x720 x264 AAC
Files:
  • 打ち上げ花火、下から見るか?横から見るか?(WebRip 1024x720 x264 AAC).mkv (544.7 MB)


All categories Anime - Anime Music Video - English-translated - ed - Raw Audio - Lossless - Lossy Literature - English-translated - ed - Raw Live Action - English-translated - Idol/Promotional.

All categories Anime - Anime Music Video - English-translated - ed - Raw Audio - Lossless - Lossy Literature - English-translated - ed - Raw Live Action - English-translated - Idol/Promotional Video - ed - Raw Pictures - Graphics - Photos Software - Applications - Games.

Torrents . Uchiage Hanabi, Shita kara Miru ka Yoko kara Miru k. .Posted in: Completed. One Thought on Uchiage Hanabi, Shita kara Miru ka? Yoko kara Miru ka? . UpURz on May 2, 2018 at 16:43 said: Thank you very much.

CherryBoyz: Do you have 'cherryboyz - CLANNAD After Story' ?

CherryBoyz: Do you have 'cherryboyz - CLANNAD After Story' ? Dec 7, 02:50. YUKIME on Bakusou Kyoudai Let’s & Go!! WGP BD-BOX (BD . 64 Flac) – TV + SP: Re-upload on MEGA or Google Drive Please Dec 1, 03:58. mst on Tamayura Hitotose (BD . 64 2Audio) – TV + SP: Why aren't all of them? Nov 30, 08:53. Carlos Gonzalez on Cowboy Bebop BD-BOX (BD . 64-10Bit 3Audio) – TV + SP: Muchas gracias.

age Hanabi Shita kara Miru ka Yoko kara Miru ka. Torent Info General Filename. Uchiage Hanabi - Shita Kara Miru Ka Yoko Kara Miru K. p4 Container.

Anime Tosho Home Uchiage Hanabi, Shita kara Miru ka? . Uchiage Hanabi, Shita kara Miru ka? Yoko kara Miru ka? (BD 1280x720 x264 10bit AACx2).

Anime Tosho Home Uchiage Hanabi, Shita kara Miru ka? Yoko kara Miru ka? 1, Complete Movie . com/open?id obaGpkS15ivzH). mkv (. 97 GB). Download.

Yoko kara Miru ka?; Fireworks, Should We See It from the Side or the Bottom?

Yoko kara Miru ka?; Fireworks, Should We See It from the Side or the Bottom? Date aired .

Yume kara, Samenai OVA English Subbed. The Story of Chinese Gods English Dubbed. The Sky Crawlers English Dubbed. The Samurai OVA English Subbed.

Yoko kara Miru ka? Ongoing . Death March kara hajimaru Isekai Kyousoukyoku Ex: Alisa Oujo no Isekai Funtouki. The Condition of an Inferior. I Was Born as the Demon Lord's Daughter.

Thanks for downloading, Enjoy your Anime (o˘◡˘o)

![alt text](https://i.imgur.com/KtKmZ5Y.jpg)
Video
ID : 1
Format : AVC
Format/Info : Advanced Video Codec
Format profile : [email protected]
Format settings, CABAC : Yes
Format settings, RefFrames : 3 frames
Codec ID : V_MPEG4/ISO/AVC
Duration : 1 h 25 min
Bit rate : 767 kb/s
Width : 1 024 pixels
Height : 720 pixels
Display aspect ratio : 1.422
Frame rate mode : Constant
Frame rate : 23.976 (24000/1001) FPS
Color space : YUV
Chroma subsampling : 4:2:0
Bit depth : 8 bits
Scan type : Progressive
Bits/(Pixel*Frame) : 0.043
Stream size : 467 MiB (86%)
Title : 打ち上げ花火、下から見るか?横から見るか?(WebRip 1024x720 x264 AAC)
Language : Japanese
Default : Yes
Forced : No
Audio
ID : 2
Format : AAC
Format/Info : Advanced Audio Codec
Format profile : LC
Codec ID : A_AAC
Duration : 1 h 25 min
Bit rate : 126 kb/s
Channel(s) : 2 channels
Channel positions : Front: L R
Sampling rate : 44.1 kHz
Frame rate : 43.066 FPS (1024 SPF)
Compression mode : Lossy
Stream size : 76.5 MiB (14%)
Language : Japanese
Default : Yes
Forced : No
Please continue seeding Senpai, if possible ????

Images:

Related at Uchiage Hanabi, Shita kara Miru ka? Yoko kara Miru ka? :
© 2019 www.gphi.it | Contacts | DMCA | Privacy Policy