» » Made in Abyss Box I WA BD 720p x264 AAC
Language: Japanese
Size: 2.9 GB
Rating: 4.8
Category: Raw
Votes: 663
Made in Abyss Box I WA BD 720p x264 AAC
Files:
[WA] Made in Abyss Box I [BD 720p x264 AAC]
  • [WA] Made in Abyss 06 [BD 720p x264 AAC].mkv (379.2 MB)
  • [WA] Made in Abyss 07 [BD 720p x264 AAC].mkv (400.1 MB)
  • [WA] Made in Abyss 05 [BD 720p x264 AAC].mkv (449.4 MB)
  • [WA] Made in Abyss 04 [BD 720p x264 AAC].mkv (472.8 MB)
  • [WA] Made in Abyss 02 [BD 720p x264 AAC].mkv (567.4 MB)
  • [WA] Made in Abyss 03 [BD 720p x264 AAC].mkv (348.5 MB)
  • [WA] Made in Abyss 01 [BD 720p x264 AAC].mkv (349.1 MB)


Source: BDMV encoded to Made in Abyss 0. kv Format : Matroska .

range : Limited Color primaries : B. 09 Transfer characteristics : B. 09 Matrix coefficients : B. 09 Audio ID : 2 Format : AAC Format/Info : Advanced Audio Codec Format profile : LC Codec ID : A AAC-2 Duration : 23 min 39 s Bit rate : 132 kb/s Channel(s) : 2 channels Channel positions : Front: L R Sampling rate : 4. kHz Frame rate : 4. 75 FPS (1024 SPF).

Video source: Komorebi (JP Bluray) x264 10 bitAudio source: JP & US Blurays (matched JP bluray timing - this time with. mkv parameters instead of clipping the audio manually) -m 5 aacSubtitles: subs with karaoke and signs. This dub is IMO better than usual.

No one knows what’s at the bottom of the Abyss. No one who's ventured that far has ever returned. What is known is that the Abyss is filled with strange creatures and priceless relics that have lured generations of fortune hunters into a diabolical trap. Because while anyone can descend into the Abyss safely, coming back up triggers a nightmarish series of transformations and madness. And the deeper you go, the less chance you have of coming back unchanged

Video source: Komorebi (JP Bluray) x264 10 bit Audio source: JP & US Blurays (matched JP bluray timing - this time with. mkv parameters instead of clipping the audio manually) -m 5 aac Subtitles: subs with karaoke and signs.

Video source: Komorebi (JP Bluray) x264 10 bit Audio source: JP & US Blurays (matched JP bluray timing - this time with. Mediainfo: & General Unique ID : 7347289518244767811 (2CC42CF5862843) Complete name : Made in Abyss Made in Abyss 01 - The City of the Great Pit (BD Dual Audio 720p).

Made in Abyss - 13 END (BS11 1280x720 x264 AAC). Tsuujou Kougeki ga Zentai Kougeki de Nikai Kougeki no Okaasan wa Suki Desuka?

Made in Abyss - 13 END (BS11 1280x720 x264 AAC). Made in Abyss - 12 RAW (BS11 1280x720 x264 AAC). Tsuujou Kougeki ga Zentai Kougeki de Nikai Kougeki no Okaasan wa Suki Desuka? 通常攻撃が全体攻撃で二回攻撃のお母さんは好きですか? Uchi no Ko no Tame Naraba, Ore wa Moshikashitara Maou mo Taoseru Kamo Shirenai. ちの娘の為ならば、俺はもしかしたら魔王も倒せるかもしれない。

Advanced embedding details, examples, and help! . ark:/13960/t7xm31j8w.

Advanced embedding details, examples, and help! .

Leonid Luka on Natsume Yuujinchou BD-BOX S01-S06 + OVA: Please upload to mega or somewhere else.

Leonid Luka on Natsume Yuujinchou BD-BOX S01-S06 + OVA: Please upload to mega or somewhere else. Chaos;Child (BD 1920x1080 . 64 Flac) - TV + Silent Sky + SP. Nov 28, 07:42. logan on Fate Stay Night Heaven’s Feel Vo. 2 lost butterfly (BD . 64 DTS-HDMAx2) – Movie + Tokuten DVD: how can i get this with subtitles? Nov 27, 07:25.

Made in Abyss 0. kv379 M.

You cannot download any of those files from here.

Made in Abyss WEB HEVC X265 720P. Find this Pin and more on Anime WEB HEVC x265 Complete by Pleximum. Made in Abyss WEB HEVC X265 720P FREE ANIME DOWNLOAD Pleximum - Your Source of HEVC x265 Anime Encodes. Yuri Free Anime Manga Noragami Ramen I Love Anime Fairy Tail Noodles Cosplay.

Thanks for downloading, Enjoy your Anime (o˘◡˘o)

**Source: BDMV [JP]
encoded to>**
[WA] Made in Abyss 01 [BD 720p x264 AAC].mkv
Format : Matroska
Format version : Version 4 / Version 2
File size : 349 MiB
Duration : 23 min 39 s
Overall bit rate : 2 062 kb/s
Encoded date : UTC 2017-11-02 16:26:40
Writing application : mkvmerge v17.0.0 ('Be Ur Friend') 64-bit
Writing library : libebml v1.3.5 + libmatroska v1.4.8
Video
ID : 1
Format : AVC
Format/Info : Advanced Video Codec
Format profile : High [email protected]
Format settings : CABAC / 16 Ref Frames
Format settings, CABAC : Yes
Format settings, RefFrames : 16 frames
Codec ID : V_MPEG4/ISO/AVC
Duration : 23 min 39 s
Bit rate : 1 930 kb/s
Width : 1 280 pixels
Height : 720 pixels
Display aspect ratio : 16:9
Frame rate mode : Constant
Frame rate : 23.976 (24000/1001) FPS
Color space : YUV
Chroma subsampling : 4:2:0
Bit depth : 10 bits
Scan type : Progressive
Bits/(Pixel*Frame) : 0.087
Stream size : 327 MiB (94%)
Writing library : x264 core 152 r2851+58 429492e t_mod_Custom [[email protected] X86_64]
Encoding settings : cabac=1 / ref=16 / deblock=1:-1:-1 / analyse=0x3:0x113 / me=umh / subme=10 / psy=1 / fade_compensate=0.00 / psy_rd=0.90:0.00 / mixed_ref=1 / me_range=32 / chroma_me=1 / trellis=2 / 8x8dct=1 / cqm=0 / deadzone=21,11 / fast_pskip=1 / chroma_qp_offset=-2 / threads=12 / lookahead_threads=3 / sliced_threads=0 / nr=0 / decimate=1 / interlaced=0 / bluray_compat=0 / constrained_intra=0 / fgo=0 / bframes=16 / b_pyramid=2 / b_adapt=2 / b_bias=0 / direct=1 / weightb=1 / open_gop=0 / weightp=2 / keyint=240 / keyint_min=23 / scenecut=40 / intra_refresh=0 / rc=crf / mbtree=0 / crf=15.5000 / qcomp=0.75 / qpmin=0:0:0 / qpmax=81:81:81 / qpstep=4 / ip_ratio=1.40 / pb_ratio=1.30 / aq=3:0.80 / aq-sensitivity=10.00 / aq-factor=1.00:1.00:1.00 / aq2=0 / aq3=0
Default : Yes
Forced : No
Color range : Limited
Color primaries : BT.709
Transfer characteristics : BT.709
Matrix coefficients : BT.709
Audio
ID : 2
Format : AAC
Format/Info : Advanced Audio Codec
Format profile : LC
Codec ID : A_AAC-2
Duration : 23 min 39 s
Bit rate : 132 kb/s
Channel(s) : 2 channels
Channel positions : Front: L R
Sampling rate : 48.0 kHz
Frame rate : 46.875 FPS (1024 SPF)
Compression mode : Lossy
Stream size : 22.0 MiB (6%)
Language : Japanese
Default : Yes
Forced : No
++++++++++++++++++++++++++++++++++++++++++
**Screenshots:**
![EP 01 - frame 5300](http://puu.sh/ydSh9/b82d072e3d.png "EP 01 - frame 5300")
**EP 01 - frame 5300**
![EP 01 - frame 13000](http://puu.sh/ydSn0/6ab96c7756.png "EP 01 - frame 13000")
**EP 01 - frame 13000**
![EP 01 - frame 18000](http://puu.sh/ydSnu/34a6678d7f.png "EP 01 - frame 18000")
**EP 01 - frame 18000**
![EP 01 - frame 26000](http://puu.sh/ydSo1/12f5a321b0.png "EP 01 - frame 26000")
**EP 01 - frame 26000**
![EP 01 - frame 29697](http://puu.sh/ydSp4/c6520f2a0a.png "EP 01 - frame 29697")
**EP 01 - frame 29697**
++++++++++++++++++++++++++++++++++++++++++
**Made in Abyss - メイドインアビス**
**Synopsis**
The Abyss—a gaping chasm stretching down into the depths of the earth, filled with mysterious creatures and relics from a time long past. How did it come to be? What lies at the bottom? Countless brave individuals, known as Divers, have sought to solve these mysteries of the Abyss, fearlessly descending into its darkest realms. The best and bravest of the Divers, the White Whistles, are hailed as legends by those who remain on the surface.
Riko, daughter of the missing White Whistle Lyza the Annihilator, aspires to become like her mother and explore the furthest reaches of the Abyss. However, just a novice Red Whistle herself, she is only permitted to roam its most upper layer. Even so, Riko has a chance encounter with a mysterious robot with the appearance of an ordinary young boy. She comes to name him Reg, and he has no recollection of the events preceding his discovery. Certain that the technology to create Reg must come from deep within the Abyss, the two decide to venture forth into the chasm to recover his memories and see the bottom of the great pit with their own eyes. However, they know not of the harsh reality that is the true existence of the Abyss.
++++++++++++++++++++++++++++++++++++++++++

Images:

Related at Made in Abyss Box I :
© 2019 www.gphi.it | Contacts | DMCA | Privacy Policy