» » One Piece - 873 480p EngSub
Language: Japanese
Size: 235.5 MB
Rating: 4.6
Category: Subbed
Votes: 086
One Piece - 873 480p EngSub
Files:
  • [60mbAnime.com] One Piece - 873 [480p][EngSub].mkv (235.5 MB)


Home One Piece English Subbed One Piece Episode 873 English Subbed. Watch One Piece Episode 873 in High HD Quality online on ww. nepiece360.

Home One Piece English Subbed One Piece Episode 873 English Subbed. One Piece Episode 873 English Subbed. by admin February 17, 2019. You Are watching One Piece Episode 873. Episode 873 in the TV Anime Series One Piece.

The following Anime One Piece Episode 873 English Subbed has been released.

You can also download free One Piece Episode 873 Eng Sub, don't forget to watch online streaming of various quality 720P 360P 240P 480P according to your connection to save internet quota.

You can also download free One Piece Episode 873 Eng Sub, don't forget to watch online streaming of various quality 720P 360P 240P 480P according to your connection to save internet quota, One Piece Episode 873 on animesim MP4 MKV hardsub softsub English subbed is already contained in the video. Next Update Schedule One Piece Release Next Week at the time specified on the release schedule page.

Into One Piece? Join the community. The largest social network for all things One Piece related. Join Now. Create Post. Fantasy's L. Member since Nov 2016.

Download File One Piece - 873.

ads. Download File One Piece - 873. org, 8bgws6gvkhmg (23. MB). ads.

Watch full One Piece Season 19 Episode 91 English Subbed full HD online. One Piece Episode 872 English Subbed. One Piece Episode 874 English Subbed. Video Errors & Solutions. Attention : About %80 of broken-missing video reports we recieve are invalid so that we believe the problems are caused by you, your computer or something else.


General
Complete name : [60mbAnime.com] One Piece - 873 [480p][EngSub].mkv
Format : Matroska
Format version : Version 4
File size : 236 MiB
Duration : 23 min 50 s
Overall bit rate : 1 381 kb/s
Encoded date : UTC 2010-02-22 21:41:29
Writing application : no_variable_data
Writing library : no_variable_data
Attachments : OpenSans-Semibold.ttf
Video
ID : 1
Format : AVC
Format/Info : Advanced Video Codec
Format profile : [email protected]
Format settings : CABAC / 6 Ref Frames
Format settings, CABAC : Yes
Format settings, RefFrames : 6 frames
Codec ID : V_MPEG4/ISO/AVC
Duration : 23 min 50 s
Bit rate : 1 281 kb/s
Width : 848 pixels
Height : 480 pixels
Display aspect ratio : 16:9
Frame rate mode : Constant
Frame rate : 23.976 (24000/1001) FPS
Color space : YUV
Chroma subsampling : 4:2:0
Bit depth : 8 bits
Scan type : Progressive
Bits/(Pixel*Frame) : 0.131
Stream size : 219 MiB (93%)
Writing library : x264 core 142
Encoding settings : cabac=1 / ref=6 / deblock=1:1:1 / analyse=0x1:0x111 / me=umh / subme=8 / psy=1 / psy_rd=0.40:0.00 / mixed_ref=1 / me_range=16 / chroma_me=1 / trellis=1 / 8x8dct=0 / cqm=0 / deadzone=21,11 / fast_pskip=1 / chroma_qp_offset=-2 / threads=6 / lookahead_threads=1 / sliced_threads=0 / nr=0 / decimate=1 / interlaced=0 / bluray_compat=0 / constrained_intra=0 / bframes=5 / b_pyramid=2 / b_adapt=2 / b_bias=0 / direct=3 / weightb=1 / open_gop=0 / weightp=2 / keyint=9999999 / keyint_min=5000000 / scenecut=0 / intra_refresh=0 / rc_lookahead=50 / rc=crf / mbtree=1 / crf=17.0 / qcomp=0.60 / qpmin=0 / qpmax=69 / qpstep=4 / vbv_maxrate=2000 / vbv_bufsize=3000 / crf_max=0.0 / nal_hrd=none / filler=0 / ip_ratio=1.40 / aq=1:0.60
Default : Yes
Forced : No
Audio
ID : 2
Format : AAC LC
Format/Info : Advanced Audio Codec Low Complexity
Codec ID : A_AAC-2
Duration : 23 min 50 s
Bit rate : 96.0 kb/s
Channel(s) : 2 channels
Channel layout : L R
Sampling rate : 44.1 kHz
Frame rate : 43.066 FPS (1024 SPF)
Compression mode : Lossy
Delay relative to video : -83 ms
Stream size : 16.4 MiB (7%)
Language : Japanese
Default : Yes
Forced : No
Text
ID : 3
Format : ASS
Codec ID : S_TEXT/ASS
Codec ID/Info : Advanced Sub Station Alpha
Duration : 23 min 31 s
Bit rate : 107 b/s
Count of elements : 300
Compression mode : Lossless
Stream size : 18.5 KiB (0%)
Language : English
Default : Yes
Forced : No

Images:
https://imgdrive.net/images/small/2019/02/17/5c68f218e861b.jpg

Related at One Piece - 873 :
© 2019 www.gphi.it | Contacts | DMCA | Privacy Policy