» » Sword Art Online - Ordinal Scale AHQx Toshokan BDRip 1080 HEVC FLAC
Language: English
Size: 23.7 GB
Rating: 4.3
Category: Subbed
Votes: 666
Sword Art Online - Ordinal Scale AHQx Toshokan BDRip 1080 HEVC FLAC
Files:
SAO ordinal scale Sound Check
  • DTS HeadphoneX 1-2.png (2.5 MB)
  • DTS HeadphoneX 1-1.png (2.5 MB)
  • DTS HeadphoneX 1-3.png (2.7 MB)
  • DTS HeadphoneX 1-4.png (2.7 MB)
  • DTS HeadphoneX 2.mkv (106.1 MB)
Menu
  • Sword Art Online Ordinal Scale - Menu.mkv (114.1 MB)
PV & CM Collection
  • Sword Art Online Ordinal Scale - PV & CM Collection.mkv (1.2 GB)
Special
  • Sword Art Offline Ordinal Scale.mkv (1.3 GB)
Movie
  • Sword Art Online Ordinal Scale.mkv (21.0 GB)


23 Thoughts on Gekijouban Sword Art Online: Ordinal Scale . Migg1 on September 29, 2017 at 04:55 said: Thank you!!!

Torrents . Sword Art Online Ordinal Scale. Posted in: Completed. 23 Thoughts on Gekijouban Sword Art Online: Ordinal Scale . Migg1 on September 29, 2017 at 04:55 said: Thank you!!!

Format : HEVC Format/Info : High Efficiency Video Coding Format profile : Main Codec ID : V MPEGH/ISO/HEVC Duration : 2 h 0 min Bit rate : 1. Mb/s .

Format : HEVC Format/Info : High Efficiency Video Coding Format profile : Main Codec ID : V MPEGH/ISO/HEVC Duration : 2 h 0 min Bit rate : 1. Mb/s Width : 1 920 pixels Height : 1 080 pixels Display aspect ratio : 16:9 Frame rate mode : Constant Frame rate : 2. 76 (24000/1001) FPS Color space : YUV Chroma subsampling : 4:2:0. Feel free to leave one

Sword Art Online ~Ordinal Scale~ DTS 5. Are subs for Sword Art Offline included in bd as well?

Sword Art Online ~Ordinal Scale~ DTS 5. Sword Art Offline ~Ordinal Scale~ (BDRip 1920x1080 x264 FLAC). Sword Art Online ~Ordinal Scale~ (BDRip 1920x1080 x264 FLAC). Are subs for Sword Art Offline included in bd as well? Tehe. 2017-09-27 07:16 UTC.

Writing library : Lavf57.

File Container: MKV Video Format: . 65/HEVC Video Resolution: 1920x1080 Aspect Ratio: 16:9. Audio Format: AAC-LC. Chapters: Yes. Video Source: BDMV.

Manga adaptation of the movie. In 2026, four years after the infamous Sword Art Online incident, a revolutionary new form of technology has emerged: the Augma, a device that utilizes an Augmented Reality system. Unlike the Virtual Reality of the NerveGear and the Amusphere, it is perfectly safe and allows players to use it while they are conscious, creating an instant hit on the market. The most popular application for the Augma is the game Ordinal Scale, which immerses players in a fantasy role-playing game with player rankings and rewards. Following the new craze, Kirito's friends dive.

Sword Art Online The Movie: Ordinal Scale is a 2017 Japanese animated science fantasy action adventure film based on the Sword Art Online light novel series written by Reki Kawahara and illustrated by abec. The film is produced by A-1 Pictures and directed by Tomohiko Itō, and is an official part of the Sword Art Online storyline, featuring an original story by Kawahara, character designs by Shingo Adachi and music by Yuki Kajiura

Thanks for downloading, Enjoy your Anime (o˘◡˘o)

Format : HEVC
Format/Info : High Efficiency Video Coding
Format profile : Main [email protected]@High
Codec ID : V_MPEGH/ISO/HEVC
Duration : 2 h 0 min
Bit rate : 18.4 Mb/s
Width : 1 920 pixels
Height : 1 080 pixels
Display aspect ratio : 16:9
Frame rate mode : Constant
Frame rate : 23.976 (24000/1001) FPS
Color space : YUV
Chroma subsampling : 4:2:0
Bit depth : 10 bits
Bits/(Pixel*Frame) : 0.371
Stream size : 15.5 GiB (74%)
Default : Yes
Forced : No
Audio #1
ID : 2
Format : FLAC
Format/Info : Free Lossless Audio Codec
Codec ID : A_FLAC
Duration : 2 h 0 min
Bit rate mode : Variable
Bit rate : 3 194 kb/s
Channel(s) : 6 channels
Channel positions : Front: L C R, Side: L R, LFE
Sampling rate : 48.0 kHz
Frame rate : 11.719 FPS (4096 SPF)
Bit depth : 24 bits
Stream size : 2.68 GiB (13%)
Writing library : libFLAC 1.2.1 (UTC 2007-09-17)
Language : Japanese
Default : Yes
Forced : No
Audio #2
ID : 3
Format : FLAC
Format/Info : Free Lossless Audio Codec
Codec ID : A_FLAC
Duration : 2 h 0 min
Bit rate mode : Variable
Bit rate : 1 393 kb/s
Channel(s) : 2 channels
Channel positions : Front: L R
Sampling rate : 48.0 kHz
Frame rate : 11.719 FPS (4096 SPF)
Bit depth : 24 bits
Stream size : 1.17 GiB (6%)
Writing library : libFLAC 1.2.1 (UTC 2007-09-17)
Language : Japanese
Default : No
Forced : No
Audio #3
ID : 4
Format : FLAC
Format/Info : Free Lossless Audio Codec
Codec ID : A_FLAC
Duration : 2 h 0 min
Bit rate mode : Variable
Bit rate : 666 kb/s
Channel(s) : 2 channels
Channel positions : Front: L R
Sampling rate : 48.0 kHz
Frame rate : 11.719 FPS (4096 SPF)
Bit depth : 16 bits
Stream size : 573 MiB (3%)
Writing library : libFLAC 1.2.1 (UTC 2007-09-17)
Language : Japanese
Default : No
Forced : No
Audio #4
ID : 5
Format : FLAC
Format/Info : Free Lossless Audio Codec
Codec ID : A_FLAC
Duration : 2 h 0 min
Bit rate mode : Variable
Bit rate : 1 357 kb/s
Channel(s) : 2 channels
Channel positions : Front: L R
Sampling rate : 48.0 kHz
Frame rate : 11.719 FPS (4096 SPF)
Bit depth : 24 bits
Stream size : 1.14 GiB (5%)
Title : Commentary
Writing library : libFLAC 1.2.1 (UTC 2007-09-17)
Language : Japanese
Default : No
Forced : No
Text
ID : 6
Format : PGS
Muxing mode : zlib
Codec ID : S_HDMV/PGS
Codec ID/Info : Picture based subtitle format used on BDs/HD-DVDs
Duration : 1 h 59 min
Bit rate : 37.1 kb/s
Count of elements : 2625
Stream size : 31.6 MiB (0%)
Language : English
Default : Yes
Forced : No
Menu
00:00:00.000 : :00:00:00.000
00:04:06.246 : :00:04:06.246
00:11:04.664 : :00:11:04.664
00:19:37.218 : :00:19:37.134
00:25:59.308 : :00:25:59.308
00:32:03.004 : :00:32:03.004
00:38:33.728 : :00:38:33.728
00:42:36.888 : :00:42:36.888
00:45:19.842 : :00:45:19.842
00:51:59.992 : :00:51:59.992
00:55:47.344 : :00:55:47.344
01:02:52.519 : :01:02:52.519
01:09:04.724 : :01:09:04.724
01:19:41.402 : :01:19:41.402
01:23:58.367 : :01:23:58.367
01:26:41.196 : :01:26:41.029
01:33:49.666 : :01:33:49.666
01:39:29.964 : :01:39:29.964
01:46:47.234 : :01:46:47.234
01:50:46.682 : :01:50:46.682
01:54:33.533 : :01:54:33.533
01:59:13.647 : :01:59:13.646

Images:

Related at Sword Art Online - Ordinal Scale :
© 2019 www.gphi.it | Contacts | DMCA | Privacy Policy