» » Dragon Ball Super 131 Eng Sub 720p WEB-DL x265 HEVC 10bit AAC 2.0 theincognito
Language: English
Size: 210.9 MB
Rating: 4.5
Category: Subbed
Votes: 449
Dragon Ball Super 131 Eng Sub 720p WEB-DL x265 HEVC 10bit AAC 2.0 theincognito
Files:
  • Dragon.Ball.Super.131.Eng.Sub.720p.WEB-DL.x265.HEVC.10bit.AAC.2.0-theincognito[UTR].mkv (210.9 MB)


Dragon Ball Super Broly 1080p Eng (Re-rendered). Posted in English-translated.

mkv (. 3 GB). Dragon. Dragon Ball Super Broly 1080p Eng (Re-rendered).

Dragon Ball Super The Movie: Broly (2018) . Dragon Ball Super Movie - Broly (WEBRip 720p Hi444PP EAC3)

Dragon Ball Super The Movie: Broly (2018) . Dragon Ball Super Movie - Broly (WEBRip 720p Hi444PP EAC3). Dragon Ball Super - Broly (1080p WEB-DL x265 HEVC 10bit AAC . theincognito). Dragon Ball Super - Broly (720p WEB-DL x265 HEVC 10bit AAC . . Dragon Ball Super The Movie: Broly (2018) .

10 hours ago Python Data Science: The Ultimate Crash Course, Tips, and Tricks to Learn Data Analytics, Machine Learning. 9 hours ago 4K Video Downloader . 0. 20 hours ago Windows 7 Ultimate . 24535 SP1 Lite (Build 24535) - November 2019.

raw download clone embed report print text . 7 KB. Th. entalist.

raw download clone embed report print text .

A medieval English knight is magically transported to the present day where he falls for a high school science teacher who is.Majid on Merry Happy Whatever S01 WEBRip x264-ION10 + 720p x265 + 1080p x265.

A medieval English knight is magically transported to the present day where he falls for a high school science teacher who is disillusioned by love. x265-iNTENSO MKV-HEVC English . Subs/ENG. Noelle p HDR Disney+ WEBRip DD+ . x265-TrollUHD. Santa’s daughter finds herself having to take over the family business.

Video ID : 1 Format : HEVC Format/Info : High Efficiency Video Coding Format profile .

Video ID : 1 Format : HEVC Format/Info : High Efficiency Video Coding Format profile : Main [email protected] Codec ID : V MPEGH/ISO/HEVC Duration : 23 min 6 s Bit rate : 2 454 kb/s Width : 1 920 pixels Height : 1 080 pixels Display aspect ratio : 16:9 Frame rate mode : Constant Frame rate : 2. 76 (24000/1001) FPS Color space : YUV Chroma.

mkv, mp4, etc) is encouraged but not necessary. 6. All posted material must be a personal upload to Mega. No imports from any sites are allowed.






Media Information

Media Information

Code:

General
Format : Matroska
Format version : Version 4 / Version 2
File size : 211 MiB
Duration : 23 min 8 s
Overall bit rate : 1 274 kb/s
Encoded date : UTC 2018-03-25 05:55:49
Writing application : mkvmerge v20.0.0 ('I Am The Sun') 64-bit
Writing library : libebml v1.3.5 + libmatroska v1.4.8
Video
ID : 1
Format : HEVC
Format/Info : High Efficiency Video Coding
Format profile : Main [email protected]@Main
Codec ID : V_MPEGH/ISO/HEVC
Duration : 23 min 7 s
Bit rate : 1 145 kb/s
Width : 1 280 pixels
Height : 720 pixels
Display aspect ratio : 16:9
Frame rate mode : Constant
Frame rate : 23.976 (24000/1001) FPS
Color space : YUV
Chroma subsampling : 4:2:0
Bit depth : 10 bits
Bits/(Pixel*Frame) : 0.052
Stream size : 189 MiB (90%)
Writing library : x265 2.7+2-22c127ff05d5:[Windows][MSVC 1900][64 bit] 10bit
Encoding settings : cpuid=1173503 / frame-threads=3 / numa-pools=8 / wpp / no-pmode / no-pme / no-psnr / no-ssim / log-level=2 / input-csp=1 / input-res=1280x720 / interlace=0 / total-frames=33258 / level-idc=0 / high-tier=1 / uhd-bd=0 / ref=3 / no-allow-non-conformance / no-repeat-headers / annexb / no-aud / no-hrd / info / hash=0 / no-temporal-layers / open-gop / min-keyint=23 / keyint=250 / gop-lookahead=0 / bframes=8 / b-adapt=2 / b-pyramid / bframe-bias=0 / rc-lookahead=20 / lookahead-slices=4 / scenecut=40 / radl=0 / no-intra-refresh / ctu=64 / min-cu-size=8 / no-rect / no-amp / max-tu-size=32 / tu-inter-depth=1 / tu-intra-depth=1 / limit-tu=0 / rdoq-level=0 / dynamic-rd=0.00 / no-ssim-rd / signhide / no-tskip / nr-intra=0 / nr-inter=0 / no-constrained-intra / strong-intra-smoothing / max-merge=2 / limit-refs=3 / no-limit-modes / me=1 / subme=2 / merange=57 / temporal-mvp / weightp / no-weightb / no-analyze-src-pics / deblock=0:0 / sao / no-sao-non-deblock / rd=3 / no-early-skip / rskip / no-fast-intra / no-tskip-fast / no-cu-lossless / no-b-intra / no-splitrd-skip / rdpenalty=0 / psy-rd=2.00 / psy-rdoq=0.00 / no-rd-refine / no-lossless / cbqpoffs=0 / crqpoffs=0 / rc=crf / crf=23.0 / qcomp=0.60 / qpstep=4 / stats-write=0 / stats-read=0 / ipratio=1.40 / pbratio=1.30 / aq-mode=3 / aq-strength=1.00 / cutree / zone-count=0 / no-strict-cbr / qg-size=32 / no-rc-grain / qpmax=69 / qpmin=0 / no-const-vbv / sar=0 / overscan=0 / videoformat=5 / range=0 / colorprim=2 / transfer=2 / colormatrix=2 / chromaloc=0 / display-window=0 / max-cll=0,0 / min-luma=0 / max-luma=1023 / log2-max-poc-lsb=8 / vui-timing-info / vui-hrd-info / slices=1 / no-opt-qp-pps / no-opt-ref-list-length-pps / no-multi-pass-opt-rps / scenecut-bias=0.05 / no-opt-cu-delta-qp / aq-motion / no-hdr / no-hdr-opt / no-dhdr10-opt / analysis-reuse-level=5 / scale-factor=0 / refine-intra=0 / refine-inter=0 / refine-mv=0 / no-limit-sao / ctu-info=0 / no-lowpass-dct / refine-mv-type=0 / copy-pic=1
Default : Yes
Forced : No
Audio
ID : 2
Format : AAC
Format/Info : Advanced Audio Codec
Format profile : LC
Codec ID : A_AAC-2
Duration : 23 min 7 s
Bit rate : 128 kb/s
Channel(s) : 2 channels
Channel positions : Front: L R
Sampling rate : 44.1 kHz
Frame rate : 43.066 FPS (1024 SPF)
Compression mode : Lossy
Delay relative to video : 10 ms
Stream size : 21.2 MiB (10%)
Language : English
Default : No
Forced : No
Text
ID : 3
Format : ASS
Codec ID : S_TEXT/ASS
Codec ID/Info : Advanced Sub Station Alpha
Duration : 22 min 51 s
Bit rate : 110 b/s
Count of elements : 296
Compression mode : Lossless
Stream size : 18.5 KiB (0%)
Language : English
Default : No
Forced : No
Images:
https://extraimage.net/images/2017/06/06/569a270b27f97abd89d97da7d6f4195f.png|https://extraimage.net/images/2018/03/25/39ea17aa09203c7ab95368b4d407a847.jpg|https://extraimage.net/images/2018/03/25/561bca231340f589c181f0684458632b.jpg|https://extraimage.net/images/2018/03/25/4e0df981876160607ee3c92528110a96.jpg|https://extraimage.net/images/2018/03/25/395e64add6000dc3b39c1e2c7b3235d4.jpg

Related at Dragon Ball Super 131 Eng Sub :
Comments 1
Fearlessrunner
Thanks for upload man. Hoping you to upload others too.
© 2019 www.gphi.it | Contacts | DMCA | Privacy Policy