» » Tokyo Ghoul-re - 07 1080p x265 HEVC 10bit AAC 2.0 BugsFunny
Language: Japanese
Size: 249.9 MB
Rating: 4.0
Category: Subbed
Votes: 646
Tokyo Ghoul-re - 07 1080p x265 HEVC 10bit AAC 2.0 BugsFunny
Files:
  • Tokyo Ghoul-re - 07 (1080p x265 HEVC 10bit AAC 2.0 BugsFunny) [UTR].mkv (249.9 MB)


Note From UTR We have no issue with individuals posting or re-uploading our torrents on a platform we aren't on. However, if this is something you'd like to do, please do so in a 'as-is' format

Note From UTR We have no issue with individuals posting or re-uploading our torrents on a platform we aren't on. However, if this is something you'd like to do, please do so in a 'as-is' format. We ask that you do not create a new torrent, include all descriptions you see above including the UTR logo, tags, notes and screenshots.

To make matters worse, it’s soon discovered there are other similarly altered animals.

Tokyo Ghoul-re - 02 (1080p x265 HEVC 10bit AAC . DUAL-AUDIO BugsFunny).

Writing application : mkvmerge v1. 0 ('Be Ur Friend') 64-bit Writing library : libebml v. 8 Video ID : 1 Format : HEVC Format/Info : High Efficiency Video Coding Format profile : Main [email protected] Codec ID : V MPEGH/ISO/HEVC Duration : 24 min 9 s Bit rate : 1 576 kb/s. Tokyo Ghoul-re - 02 (1080p x265 HEVC 10bit AAC .

The tag must be relevant to the content you're sharing. Submitters are encouraged to use them especially in the case of Movies or TV Shows.

23fps 『Bit Depth. 0 bit 『Display. Tokyo Ghoul-Re x265 - DZY. 6:9 『Codec. 265 a u d i o ─═════────────── 『Format. E-AAC 『Channel. channels 『Sampling Rate』 4. KHz Lemme know if you’ve any issue with video/audio! Thanks! . Tokyo Ghoul-re - 01 x265 - DZ. kv (18. MiB). Tokyo Ghoul-re - 02 x265 - DZ. kv (15. Tokyo Ghoul-re - 03 x265 - DZ. Tokyo Ghoul-re - 04 x265 - DZ. kv (14. Tokyo Ghoul-re - 05 x265 - DZ. kv (16.

Uploading 0 image (0% complete). The queue is being uploaded, it should take just a few seconds to complete.

Tokyo Ghoul-re - 07 (1080p x265 HEVC 10bit AAC . BugsFunny).

8 Writing frontend : StaxRip v.

1Format : HEVCFormat/Info : High Efficiency Video CodingFormat profile : Main .

Tokyo Ghoul-re - (01-12) (1080p x265 HEVC 10bit AAC . BugsFunny) Last Style Storage: Default Audio File: Tokyo Ghoul re - 11 Video File: Tokyo Ghoul re - 11 Video AR Mode: 4 Video AR Value. Last Style Storage: Default Audio File: Tokyo Ghoul re - 11 Video File: Tokyo Ghoul re - 11 Video AR Mode: 4 Video AR Value: . 77778 Video Zoom Percent: . 00000 Scroll Position: 281. Subtitle details: Online: 6/20/2018 10:46 AM. Hearing Impaired: No. Foreign parts: No.







Media Information

Media Information

Code:

General
Format : Matroska
Format version : Version 4 / Version 2
File size : 250 MiB
Duration : 24 min 10 s
Overall bit rate : 1 445 kb/s
Encoded date : UTC 2018-05-15 17:53:06
Writing application : mkvmerge v20.0.0 ('I Am The Sun') 64-bit
Writing library : libebml v1.3.5 + libmatroska v1.4.8
Writing frontend : StaxRip v1.7.0.5
Video
ID : 1
Format : HEVC
Format/Info : High Efficiency Video Coding
Format profile : Main [email protected]@Main
Codec ID : V_MPEGH/ISO/HEVC
Duration : 24 min 10 s
Bit rate : 1 284 kb/s
Width : 1 920 pixels
Height : 1 080 pixels
Display aspect ratio : 16:9
Frame rate mode : Constant
Frame rate : 23.976 (24000/1001) FPS
Color space : YUV
Chroma subsampling : 4:2:0
Bit depth : 10 bits
Bits/(Pixel*Frame) : 0.026
Stream size : 222 MiB (89%)
Writing library : x265 2.7+348-0968a46d6ba4:[Windows][GCC 8.1.0][64 bit] 10bit
Encoding settings : cpuid=1111039 / frame-threads=3 / numa-pools=8 / wpp / no-pmode / no-pme / no-psnr / no-ssim / log-level=2 / input-csp=1 / input-res=1920x1080 / interlace=0 / total-frames=34767 / level-idc=0 / high-tier=1 / uhd-bd=0 / ref=4 / no-allow-non-conformance / no-repeat-headers / annexb / no-aud / no-hrd / info / hash=0 / no-temporal-layers / open-gop / min-keyint=23 / keyint=250 / gop-lookahead=0 / bframes=4 / b-adapt=2 / b-pyramid / bframe-bias=0 / rc-lookahead=30 / lookahead-slices=4 / scenecut=40 / radl=0 / no-intra-refresh / ctu=32 / min-cu-size=8 / no-rect / no-amp / max-tu-size=16 / tu-inter-depth=2 / tu-intra-depth=2 / limit-tu=0 / rdoq-level=2 / dynamic-rd=0.00 / no-ssim-rd / signhide / no-tskip / nr-intra=0 / nr-inter=0 / no-constrained-intra / strong-intra-smoothing / max-merge=3 / limit-refs=3 / limit-modes / me=3 / subme=5 / merange=92 / temporal-mvp / weightp / no-weightb / no-analyze-src-pics / deblock=1:1 / sao / no-sao-non-deblock / rd=4 / no-early-skip / rskip / no-fast-intra / no-tskip-fast / no-cu-lossless / no-b-intra / no-splitrd-skip / rdpenalty=0 / psy-rd=2.00 / psy-rdoq=5.00 / no-rd-refine / no-lossless / cbqpoffs=0 / crqpoffs=0 / rc=crf / crf=21.5 / qcomp=0.60 / qpstep=4 / stats-write=0 / stats-read=0 / ipratio=1.40 / pbratio=1.30 / aq-mode=3 / aq-strength=1.00 / cutree / zone-count=0 / no-strict-cbr / qg-size=32 / no-rc-grain / qpmax=69 / qpmin=0 / no-const-vbv / sar=0 / overscan=0 / videoformat=5 / range=0 / colorprim=2 / transfer=2 / colormatrix=2 / chromaloc=0 / display-window=0 / max-cll=0,0 / min-luma=0 / max-luma=1023 / log2-max-poc-lsb=8 / vui-timing-info / vui-hrd-info / slices=1 / no-opt-qp-pps / no-opt-ref-list-length-pps / no-multi-pass-opt-rps / scenecut-bias=0.05 / no-opt-cu-delta-qp / aq-motion / no-hdr / no-hdr-opt / no-dhdr10-opt / no-idr-recovery-sei / analysis-reuse-level=5 / scale-factor=0 / refine-intra=0 / refine-inter=0 / refine-mv=0 / no-limit-sao / ctu-info=0 / no-lowpass-dct / refine-mv-type=0 / copy-pic=1 / max-ausize-factor=1.0 / no-dynamic-refine / no-single-sei
Default : Yes
Forced : No
Audio
ID : 2
Format : AAC
Format/Info : Advanced Audio Codec
Format profile : LC
Codec ID : A_AAC
Duration : 24 min 10 s
Bit rate : 159 kb/s
Channel(s) : 2 channels
Channel positions : Front: L R
Sampling rate : 48.0 kHz
Frame rate : 46.875 FPS (1024 spf)
Compression mode : Lossy
Delay relative to video : 20 ms
Stream size : 27.4 MiB (11%)
Language : Japanese
Default : Yes
Forced : No
Subtitle #1
ID : 3
Format : ASS
Codec ID : S_TEXT/ASS
Codec ID/Info : Advanced Sub Station Alpha
Duration : 23 min 44 s
Bit rate : 92 b/s
Count of elements : 276
Compression mode : Lossless
Stream size : 16.1 KiB (0%)
Language : English
Default : No
Forced : No
Subtitle #2
ID : 4
Format : ASS
Codec ID : S_TEXT/ASS
Codec ID/Info : Advanced Sub Station Alpha
Duration : 23 min 46 s
Bit rate : 115 b/s
Count of elements : 316
Compression mode : Lossless
Stream size : 20.2 KiB (0%)
Language : English
Default : No
Forced : No

Source Information

Code:

Release:
[Erai-raws] Tokyo Ghoul-re - 07 [1080p].mkv (1.34 GBs)


Note From UTR
We have no issue with individuals posting or re-uploading our torrents on a platform we aren't on. However, if this is something you'd like to do, please do so in a 'as-is' format. We ask that you do not create a new torrent, include all descriptions you see above including the UTR logo, tags, notes and screenshots. If you'd like to become a permanent poster on a website we don't post to, feel free to get in contact with a UniTeam member.
If possible please donate: BTC 1QA5fum5AyXvWzdVCkQzUNvw3Ef15fHRaR

Images:
https://extraimage.net/images/2017/06/06/569a270b27f97abd89d97da7d6f4195f.png|https://extraimage.net/images/2018/05/15/9a37283c8cfa3f11b2e934840a89697b.md.png|https://extraimage.net/images/2018/05/15/e186a36b3c2ed66210abe3322f2458c2.md.png|https://extraimage.net/images/2018/05/15/6799358c09d7d01ad942eee1c59e1512.md.png|https://extraimage.net/images/2018/05/15/91876a984b6ebac5385c22deed251d88.md.png|https://extraimage.net/images/2018/05/15/7dea05b1e02bb4139444d557ccb754cf.md.png|https://extraimage.net/images/2018/01/23/e138c6bd5037494cc04256dcc4e56c09.png

Related at Tokyo Ghoul-re - 07 :
Comments 3
Ranicengi
no sub . zzzzzzzzzzzzz
Kakashkaliandiia
sorry my bad,,, there are sub !!
Modigas
is it english dubbed ?
© 2019 www.gphi.it | Contacts | DMCA | Privacy Policy