» » Sword Art Online - Alicization 14 1080p WEBRip x265 HEVC 10bit AAC 2.0 theincognito
Language: Japanese
Size: 275.6 MB
Rating: 4.0
Category: Subbed
Votes: 178
Sword Art Online - Alicization 14 1080p WEBRip x265 HEVC 10bit AAC 2.0 theincognito
Files:
  • Sword.Art.Online.Alicization.14.1080p.WEBRip.x265.HEVC.10bit.AAC.2.0-theincognito[UTR].mkv (275.6 MB)


Watch Online feature.

mkv (27. 4 MB). Sword. 27. 4 MB. Description. Watch Online feature.

Source: Erai-raws Video: 1080p,x265 10bit Audio: Untouched from source Subtitle: Untouched from source Feedback appreciated!

Source: Erai-raws Video: 1080p,x265 10bit Audio: Untouched from source Subtitle: Untouched from source Feedback appreciated! File list.

Watch Online feature. 9 MB). 9 MB. Related Torrents.

Source: Erai-Raws Video: 1080p, x265 10bit Audio: Untouched Subtitle .

You cannot download any of those files from here.

You cannot download any of those files from here. welcome home hellyeah 0s, angry bird french 0s, piss orgy 0s, wiska 0s, hocus pocus 0s, Platypus 2 0s, Blake Shelton honey bee 0s, first date 1s, Hindi 2019 1s, 无颜之月 1s.

or you can wait 1 hours 59 minutes 47 seconds to launch a new download. Free members only wait 30 minutes before re-downloading! Don't wait with. Even when server is down.

mkv 27. MB. Related Resources. If the content above is not authorized, please contact us via contactp2bt. Remember to include the full url in your complaint.

All categories Anime - Anime Music Video - English-translated - ed - Raw Audio - Lossless - Lossy Literature - English-translated . 2019-02-24 02:46 UTC. Submitter: theincognito.

All categories Anime - Anime Music Video - English-translated - ed - Raw Audio - Lossless - Lossy Literature - English-translated - ed - Raw Live Action - English-translated - Idol/Promotional Video - ed - Raw Pictures - Graphics - Photos Software - Applications - Games. Sword Art Online - Alicization 19 (1080p WEBRip x265 HEVC 10bit AAC . theincognito). Category: Anime - English-translated.






Media Information

Media Information

Code:

General
Format : Matroska
Format version : Version 4 / Version 2
File size : 276 MiB
Duration : 23 min 40 s
Overall bit rate : 1 628 kb/s
Encoded date : UTC 2019-01-12 19:47:27
Writing application : mkvmerge v30.1.0 ('Forever And More') 64-bit
Writing library : libebml v1.3.6 + libmatroska v1.4.9
Video
ID : 1
Format : HEVC
Format/Info : High Efficiency Video Coding
Format profile : Main [email protected]@Main
Codec ID : V_MPEGH/ISO/HEVC
Duration : 23 min 40 s
Bit rate : 1 498 kb/s
Width : 1 920 pixels
Height : 1 080 pixels
Display aspect ratio : 16:9
Frame rate mode : Constant
Frame rate : 23.976 (24000/1001) FPS
Color space : YUV
Chroma subsampling : 4:2:0
Bit depth : 10 bits
Bits/(Pixel*Frame) : 0.030
Stream size : 254 MiB (92%)
Writing library : x265 3.0_RC+10-672ce0547e97:[Windows][MSVC 1920][64 bit] 10bit
Encoding settings : cpuid=1111039 / frame-threads=3 / numa-pools=8 / wpp / no-pmode / no-pme / no-psnr / ssim / log-level=2 / csv / csv-log-level=0 / input-csp=1 / input-res=1920x1080 / interlace=0 / total-frames=34046 / level-idc=0 / high-tier=1 / uhd-bd=0 / ref=3 / no-allow-non-conformance / no-repeat-headers / annexb / no-aud / no-hrd / info / hash=0 / no-temporal-layers / open-gop / min-keyint=23 / keyint=250 / gop-lookahead=0 / bframes=8 / b-adapt=2 / b-pyramid / bframe-bias=0 / rc-lookahead=50 / lookahead-slices=6 / scenecut=40 / radl=0 / no-splice / no-intra-refresh / ctu=64 / min-cu-size=8 / no-rect / no-amp / max-tu-size=32 / tu-inter-depth=1 / tu-intra-depth=1 / limit-tu=0 / rdoq-level=0 / dynamic-rd=0.00 / ssim-rd / signhide / no-tskip / nr-intra=0 / nr-inter=0 / no-constrained-intra / strong-intra-smoothing / max-merge=2 / limit-refs=3 / no-limit-modes / me=2 / subme=4 / merange=57 / temporal-mvp / weightp / no-weightb / no-analyze-src-pics / deblock=0:0 / sao / no-sao-non-deblock / rd=3 / no-early-skip / rskip / no-fast-intra / no-tskip-fast / no-cu-lossless / no-b-intra / no-splitrd-skip / rdpenalty=0 / psy-rd=0.00 / psy-rdoq=0.00 / no-rd-refine / no-lossless / cbqpoffs=0 / crqpoffs=0 / rc=abr / bitrate=1500 / qcomp=0.60 / qpstep=4 / stats-write=0 / stats-read=2 / cplxblur=20.0 / qblur=0.5 / ipratio=1.40 / pbratio=1.30 / aq-mode=3 / aq-strength=1.00 / cutree / zone-count=0 / no-strict-cbr / qg-size=32 / no-rc-grain / qpmax=69 / qpmin=0 / no-const-vbv / sar=0 / overscan=0 / videoformat=5 / range=0 / colorprim=2 / transfer=2 / colormatrix=1 / chromaloc=0 / display-window=0 / max-cll=0,0 / min-luma=0 / max-luma=1023 / log2-max-poc-lsb=8 / vui-timing-info / vui-hrd-info / slices=1 / no-opt-qp-pps / no-opt-ref-list-length-pps / no-multi-pass-opt-rps / scenecut-bias=0.05 / no-opt-cu-delta-qp / aq-motion / no-hdr / no-hdr-opt / no-dhdr10-opt / no-idr-recovery-sei / analysis-reuse-level=5 / scale-factor=0 / refine-intra=0 / refine-inter=0 / refine-mv=0 / refine-ctu-distortion=0 / no-limit-sao / ctu-info=0 / no-lowpass-dct / refine-analysis-type=0 / copy-pic=1 / max-ausize-factor=1.0 / no-dynamic-refine / no-single-sei / no-hevc-aq / qp-adaptation-range=1.00
Default : Yes
Forced : No
Color range : Limited
Matrix coefficients : BT.709
Audio
ID : 2
Format : AAC
Format/Info : Advanced Audio Codec
Format profile : LC
Codec ID : A_AAC
Duration : 23 min 39 s
Bit rate : 128 kb/s
Channel(s) : 2 channels
Channel positions : Front: L R
Sampling rate : 44.1 kHz
Frame rate : 43.066 FPS (1024 spf)
Compression mode : Lossy
Delay relative to video : 10 ms
Stream size : 21.7 MiB (8%)
Language : Japanese
Default : No
Forced : No
Subtitle
ID : 3
Format : ASS
Codec ID : S_TEXT/ASS
Codec ID/Info : Advanced Sub Station Alpha
Duration : 23 min 18 s
Bit rate : 92 b/s
Count of elements : 201
Compression mode : Lossless
Stream size : 15.9 KiB (0%)
Language : English
Default : Yes
Forced : No

Source Information

Code:

Release:
[Erai-raws] Sword Art Online - Alicization - 14 [1080p][Multiple Subtitle]
Images:
https://imagez.to/i/1K3Mla7z.png|https://extraimage.net/images/2019/01/12/fdaaf36250cfad82bea05344d2d762da.png|https://extraimage.net/images/2019/01/12/05635ea4e49e11254666ff10c8fb1bb5.png|https://extraimage.net/images/2019/01/12/4b06248714bbd4e4e94a95f1b3ccf086.png|https://extraimage.net/images/2019/01/12/fa679335b3f3aa27744ba212af95990b.png

Related at Sword Art Online - Alicization 14 :
© 2019 www.gphi.it | Contacts | DMCA | Privacy Policy