» » Knight's & Magic BD720p_HEVC_SmoodFlamez
Language: Japanese
Size: 2.4 GB
Rating: 4.8
Category: Subbed
Votes: 349
Knight's & Magic BD720p_HEVC_SmoodFlamez
Files:
Knight's & Magic (BD720p_HEVC_SmoodFlamez)
  • Knight's & Magic - 01_(BD720p).mkv (165.6 MB)
  • Knight's & Magic - 02_(BD720p).mkv (244.8 MB)
  • Knight's & Magic - 03_(BD720p).mkv (156.5 MB)
  • Knight's & Magic - 04_(BD720p).mkv (150.2 MB)
  • Knight's & Magic - 05_(BD720p).mkv (179.7 MB)
  • Knight's & Magic - 06_(BD720p).mkv (173.7 MB)
  • Knight's & Magic - 07_(BD720p).mkv (182.8 MB)
  • Knight's & Magic - 08_(BD720p).mkv (201.6 MB)
  • Knight's & Magic - 09_(BD720p).mkv (176.4 MB)
  • Knight's & Magic - 10_(BD720p).mkv (148.4 MB)
  • Knight's & Magic - 11_(BD720p).mkv (162.9 MB)
  • Knight's & Magic - 12_(BD720p).mkv (179.0 MB)
  • Knight's & Magic - 13_(BD720p).mkv (202.1 MB)
  • Knight's & Magic - NCED_(BD720p).mkv (19.8 MB)
  • Knight's & Magic - NCOP_(BD720p).mkv (64.1 MB)
  • Screenshots
    • 2019-08-15_215132.png (1.8 MB)
    • 2019-08-15_215142.png (1.9 MB)
    • 2019-08-15_215155.png (1.4 MB)
    • 2019-08-15_215303.png (1.7 MB)
    Wallpapers
    • wp3806845.jpg (433.3 KB)
    • wp3806850.jpg (166.5 KB)
    • wp3806852.jpg (174.7 KB)
    • wp3806874.png (2.1 MB)
    • wp3806875.jpg (154.5 KB)


Anime Tosho Home Knight's & Magic Unsorted Files . Knight's & Magic (BD720p HEVC SmoodFlamez).

Anime Tosho Home Knight's & Magic Unsorted Files .

Knight's & Magic - 01 (BD720p).

MediaInfo Video ID : 1 Format : HEVC Format/Info : High Efficiency Video Coding Format profile : Main Codec ID : V MPEGH/ISO/HEVC Duration : 24 min 31 s Bit rate : 797 kb/s Width : 1 280 pixels Height : 720 pixels Display aspect ratio : 16:9 Frame rate mode : Constant Frame rate : 2. 76 (24000/1001) FPS Color space : YUV Chroma subsampling : 4:2:0 Bit depth : 10 bits Audio ID : 2 Format : AAC LC Format/Info : Advanced Audio Codec Low Complexity Codec ID : A AAC-2 Duration : 24 min 31 s Bit rate : 8. kb/s. Knight's & Magic - 01 (BD720p).

Natsume Yuujinchou BD-BOX S01-S06 + OVA. Gin no Saji S2 (BD x264 FLAC). Tags : Knight's & Magic.

Heavy Object BD720p (HEVC 10bit SmoodFlamez). Beaucoup thanks SmoodFlamez for your work on this and sharing it on Nyaa-looking forward to the watch. SmoodFlamez (uploader). 2019-06-30 04:21 UTC. Np YW Bud Enjoy!

Campione (BD720p HEVC SmoodFlamez).

Campione (BD720p HEVC SmoodFlamez).

or you can wait 1 hours 55 minutes 36 seconds to launch a new download. Free members only wait 30 minutes before re-downloading!

or you can wait 1 hours 55 minutes 36 seconds to launch a new download. Free members only wait 30 minutes before re-downloading! Don't wait with. Even when server is down.

Mecha otaku Tsubasa Kurata had a pretty good life until he died in a car crash. Now, he’s living the life of his dreams. Reincarnated as a young boy, he finds himself in an alternate world where magic is real and humans pilot giant robots called Silhouette Knights

Mecha otaku Tsubasa Kurata had a pretty good life until he died in a car crash. Reincarnated as a young boy, he finds himself in an alternate world where magic is real and humans pilot giant robots called Silhouette Knights. It’s this mecha fanboy’s chance to shine, and he knows it. Nothing will stop him from building and piloting his very own mecha.

Dreaming of piloting those robots, Eru and his friends, Archid Olter and Adeltrud Olter, aim to become Knight Runners. English: Knight’s & Magic. Japanese: ナイツ&マジック.

06 - Knight Of The Rebellion. 122 MB. 07 - The Meaning Of Freedom.

Title
Knight’s And Magic

Source
Motto
Synopsis
Having died in a car accident, Tsubasa Kurata—an otaku from modern Japan—is reborn in the Fremmevilla Kingdom, a medieval world where powerful mechs called Silhouette Knights are used to fight horrific demonic beasts.
Born into a noble family under the name of Ernesti Echevarria and bestowed with prodigious magical abilities, he enrolls into Royal Laihaila Academy. This school of magic trains young men and women on how to pilot the Silhouette Knights, prepping them to protect the kingdom from threats, both demonic and human. Ernesti teams up with the twins named Adeltrud and Archid Olter with the goal to create his own Silhouette Knight one day, a feat unheard of for several centuries.
Information
Type: TV
Episodes: 13
Status: Finished Airing
Aired: Jul 2, 2017 to Sep 24, 2017
Premiered: Summer 2017
Broadcast: Sundays at 21:00 (JST)
Producers: Bandai Visual, Genco, Lantis, AT-X, Magic Capsule, Q-Tec, Hakuhodo DY Music & Pictures
Licensors: Funimation
Studios: 8bit
Source: Light novel
Genres: Action, Fantasy, Mecha, School
Duration: 24 min. per ep.
Rating: PG-13 - Teens 13 or older
=====================================================================================
MediaInfo
Video
ID : 1
Format : HEVC
Format/Info : High Efficiency Video Coding
Format profile : Main [email protected]@High
Codec ID : V_MPEGH/ISO/HEVC
Duration : 24 min 31 s
Bit rate : 797 kb/s
Width : 1 280 pixels
Height : 720 pixels
Display aspect ratio : 16:9
Frame rate mode : Constant
Frame rate : 23.976 (24000/1001) FPS
Color space : YUV
Chroma subsampling : 4:2:0
Bit depth : 10 bits
Audio
ID : 2
Format : AAC LC
Format/Info : Advanced Audio Codec Low Complexity
Codec ID : A_AAC-2
Duration : 24 min 31 s
Bit rate : 80.0 kb/s
Channel(s) : 2 channels
Channel layout : L R
Sampling rate : 96.0 kHz
Frame rate : 93.750 FPS (1024 SPF)
Compression mode : Lossy
Stream size : 14.0 MiB (9%)
Language : Japanese
Default : Yes
Forced : No
Text #1
ID : 3
Format : ASS
Codec ID : S_TEXT/ASS
Codec ID/Info : Advanced Sub Station Alpha
Duration : 24 min 29 s
Bit rate : 973 b/s
Count of elements : 2275
Compression mode : Lossless
Stream size : 175 KiB (0%)
Language : English
Default : No
Forced : Yes
Text #2
ID : 4
Format : ASS
Codec ID : S_TEXT/ASS
Codec ID/Info : Advanced Sub Station Alpha
Duration : 24 min 29 s
Bit rate : 851 b/s
Count of elements : 1911
====================================================================================
Screenshots

Images:
https://imgsaver.com/images/2019/08/29/wp3806845.md.jpg|https://imgsaver.com/images/2019/08/29/2019-08-15_215142.md.png|https://imgsaver.com/images/2019/08/29/2019-08-15_215132.md.png

Related at Knight's & Magic :
Comments 3
Celore
wish this had eng dub too
Rigiot
wish this had eng dub too
Welahza
Dont do Dubs as the are horrible
© 2019 www.gphi.it | Contacts | DMCA | Privacy Policy