» » One Punch Man S02E07 1080p WEBRip x265 HEVC 10bit AAC 2.0 theincognito
Language: Japanese
Size: 225.0 MB
Rating: 4.7
Category: Subbed
Votes: 819
One Punch Man S02E07 1080p WEBRip x265 HEVC 10bit AAC 2.0 theincognito
Files:
  • One.Punch.Man.S02E07.1080p.WEBRip.x265.HEVC.10bit.AAC.2.0-theincognito[UTR].mkv (225.0 MB)


american horror story s03 hevc.

american horror story s03 hevc. 1 minute ago. l a s finest s01e02. 4 minutes ago. the housewife. 9 minutes ago. chicago s01e12.

to dust 2018 dvdrip x264 lpd tgx. 2 minutes ago. chhichhore 2019 hindi 720p x264 1 2gb aac movcr. 16 minutes ago. fringe season. love island s05e26 480p x264 msd eztv. 19 minutes ago. dirty money j graves mystery n 7 by liliana hart epub. 20 minutes ago. Tags.

All categories Anime - Anime Music Video - English-translated - ed - Raw Audio - Lossless - Lossy Literature - English-translated .

All categories Anime - Anime Music Video - English-translated - ed - Raw Audio - Lossless - Lossy Literature - English-translated - ed - Raw Live Action - English-translated - Idol/Promotional Video - ed - Raw Pictures - Graphics - Photos Software - Applications - Games. One Punch Man S02E07 (1080p WEBRip x265 HEVC 10bit AAC . theincognito).

Mob Psycho 100 II - Episode 7 (of 13): Cornered: True Identity.

You cannot download any of those files from here

You cannot download any of those files from here.

Video ID : 1 Format : HEVC Format/Info : High Efficiency Video Coding Format profile : Main . .Code: Release: One Punch Man (2019) - 12 END.

Video ID : 1 Format : HEVC Format/Info : High Efficiency Video Coding Format profile : Main Codec ID : V MPEGH/ISO/HEVC Duration : 23 min 49 s Bit rate : 1 809 kb/s Width : 1 920 pixels Height : 1 080 pixels Display aspect ratio : 16:9 Frame rate mode : Constant Frame rate : 2. 76 (24000/1001) FPS Color space : YUV Chroma subsampling .

10 hours ago Python Data Science: The Ultimate Crash Course, Tips, and Tricks to Learn Data Analytics, Machine Learning. 9 hours ago 4K Video Downloader . 0. 20 hours ago Windows 7 Ultimate . 24535 SP1 Lite (Build 24535) - November 2019.

Advanced embedding details, examples, and help! . Olympus S01E02 Daedalus (1080p x265 10bit apekat). Olympus S01E03 Ring of the Magi (1080p x265 10bit apekat). Olympus S01E04 Minos (1080p x265 10bit apekat).

Room at the Top Room. x264-Cinefeel – . GB Filename. 1-CHDBits – 5. GB. pFull Blu-ray Disc.





Code:

Format : Matroska
Format version : Version 4
File size : 225 MiB
Duration : 23 min 51 s
Overall bit rate : 1 318 kb/s
Encoded date : UTC 2019-05-22 00:45:59
Writing application : mkvmerge v34.0.0 ('Sight and Seen') 64-bit
Writing library : libebml v1.3.7 + libmatroska v1.5.0
Video
ID : 1
Format : HEVC
Format/Info : High Efficiency Video Coding
Format profile : Main [email protected]@Main
Codec ID : V_MPEGH/ISO/HEVC
Duration : 23 min 50 s
Bit rate : 1 188 kb/s
Width : 1 920 pixels
Height : 1 080 pixels
Display aspect ratio : 16:9
Frame rate mode : Constant
Frame rate : 23.976 (24000/1001) FPS
Color space : YUV
Chroma subsampling : 4:2:0
Bit depth : 10 bits
Bits/(Pixel*Frame) : 0.024
Stream size : 203 MiB (90%)
Writing library : x265 3.0+1-ed72af837053:[Linux][GCC 6.3.0][64 bit] 10bit
Encoding settings : cpuid=1111039 / frame-threads=2 / wpp / no-pmode / no-pme / no-psnr / no-ssim / log-level=2 / input-csp=1 / input-res=1920x1080 / interlace=0 / total-frames=0 / level-idc=0 / high-tier=1 / uhd-bd=0 / ref=3 / no-allow-non-conformance / no-repeat-headers / annexb / no-aud / no-hrd / info / hash=0 / no-temporal-layers / open-gop / min-keyint=23 / keyint=250 / gop-lookahead=0 / bframes=8 / b-adapt=2 / b-pyramid / bframe-bias=0 / rc-lookahead=50 / lookahead-slices=6 / scenecut=40 / radl=0 / no-splice / no-intra-refresh / ctu=64 / min-cu-size=8 / no-rect / no-amp / max-tu-size=32 / tu-inter-depth=1 / tu-intra-depth=1 / limit-tu=0 / rdoq-level=0 / dynamic-rd=0.00 / no-ssim-rd / signhide / no-tskip / nr-intra=0 / nr-inter=0 / no-constrained-intra / strong-intra-smoothing / max-merge=2 / limit-refs=3 / no-limit-modes / me=1 / subme=2 / merange=57 / temporal-mvp / weightp / no-weightb / no-analyze-src-pics / deblock=1:1 / sao / no-sao-non-deblock / rd=3 / no-early-skip / rskip / no-fast-intra / no-tskip-fast / no-cu-lossless / no-b-intra / no-splitrd-skip / rdpenalty=0 / psy-rd=0.40 / psy-rdoq=0.00 / no-rd-refine / no-lossless / cbqpoffs=0 / crqpoffs=0 / rc=crf / crf=23.0 / qcomp=0.60 / qpstep=4 / stats-write=0 / stats-read=0 / ipratio=1.40 / pbratio=1.30 / aq-mode=3 / aq-strength=0.40 / cutree / zone-count=0 / no-strict-cbr / qg-size=32 / no-rc-grain / qpmax=69 / qpmin=0 / no-const-vbv / sar=1 / overscan=0 / videoformat=5 / range=0 / colorprim=2 / transfer=2 / colormatrix=2 / chromaloc=0 / display-window=0 / max-cll=0,0 / min-luma=0 / max-luma=1023 / log2-max-poc-lsb=8 / vui-timing-info / vui-hrd-info / slices=1 / no-opt-qp-pps / no-opt-ref-list-length-pps / no-multi-pass-opt-rps / scenecut-bias=0.05 / no-opt-cu-delta-qp / no-aq-motion / no-hdr / no-hdr-opt / no-dhdr10-opt / no-idr-recovery-sei / analysis-reuse-level=5 / scale-factor=0 / refine-intra=0 / refine-inter=0 / refine-mv=0 / refine-ctu-distortion=0 / no-limit-sao / ctu-info=0 / no-lowpass-dct / refine-analysis-type=0 / copy-pic=1 / max-ausize-factor=1.0 / no-dynamic-refine / no-single-sei / no-hevc-aq / qp-adaptation-range=1.00
Default : Yes
Forced : No
Audio
ID : 2
Format : AAC LC
Format/Info : Advanced Audio Codec Low Complexity
Codec ID : A_AAC-2
Duration : 23 min 50 s
Bit rate : 128 kb/s
Channel(s) : 2 channels
Channel layout : L R
Sampling rate : 44.1 kHz
Frame rate : 43.066 FPS (1024 SPF)
Compression mode : Lossy
Delay relative to video : -83 ms
Stream size : 21.8 MiB (10%)
Language : Japanese
Default : Yes
Forced : No
Text #1
ID : 3
Format : ASS
Codec ID : S_TEXT/ASS
Codec ID/Info : Advanced Sub Station Alpha
Duration : 23 min 48 s
Bit rate : 138 b/s
Count of elements : 365
Compression mode : Lossless
Stream size : 24.1 KiB (0%)
Title : English(US)
Language : English
Default : Yes
Forced : No
Text #2
ID : 4
Format : ASS
Codec ID : S_TEXT/ASS
Codec ID/Info : Advanced Sub Station Alpha
Duration : 23 min 48 s
Bit rate : 173 b/s
Count of elements : 364
Compression mode : Lossless
Stream size : 30.2 KiB (0%)
Title : Arabic
Language : Arabic
Default : No
Forced : No
Text #3
ID : 5
Format : ASS
Codec ID : S_TEXT/ASS
Codec ID/Info : Advanced Sub Station Alpha
Duration : 23 min 50 s
Bit rate : 124 b/s
Count of elements : 349
Compression mode : Lossless
Stream size : 21.8 KiB (0%)
Title : Espanol(Espana)
Language : Spanish
Default : No
Forced : No
Text #4
ID : 6
Format : ASS
Codec ID : S_TEXT/ASS
Codec ID/Info : Advanced Sub Station Alpha
Duration : 23 min 48 s
Bit rate : 141 b/s
Count of elements : 365
Compression mode : Lossless
Stream size : 24.7 KiB (0%)
Title : Portugues(Portugal)
Language : Portuguese
Default : No
Forced : No
Text #5
ID : 7
Format : ASS
Codec ID : S_TEXT/ASS
Codec ID/Info : Advanced Sub Station Alpha
Duration : 23 min 48 s
Bit rate : 223 b/s
Count of elements : 364
Compression mode : Lossless
Stream size : 38.9 KiB (0%)
Title : Russian
Language : Russian
Default : No
Forced : No
Images:
https://extraimage.net/images/2019/05/22/f0c241730012a1b87424bef9a90008e2.png|https://extraimage.net/images/2019/05/22/a10af705f0b3df2b2643fc2b5f30e9cc.png|https://extraimage.net/images/2019/05/22/026c2533d6de171bf10f23cbadf03d33.png|https://extraimage.net/images/2019/05/22/274329eefeb9a8eebe2fbcd2cc4123dc.png

Related at One Punch Man S02E07 :
Comments 2
Rexfire
Thanks again theincognito.
Zehaffy
Thank you, wonderful quality and a very small size. You are great :)
© 2019 www.gphi.it | Contacts | DMCA | Privacy Policy