» » One Punch Man S02E03 1080p WEBRip x265 HEVC 10bit AAC 2.0 theincognito
Language: Japanese
Size: 227.3 MB
Rating: 4.3
Category: Subbed
Votes: 143
One Punch Man S02E03 1080p WEBRip x265 HEVC 10bit AAC 2.0 theincognito
Files:
  • One.Punch.Man.S02E03.1080p.WEBRip.x265.HEVC.10bit.AAC.2.0-theincognito[UTR].mkv (227.3 MB)


All categories Anime - Anime Music Video - English-translated - ed - Raw Audio - Lossless - Lossy Literature - English-translated . Source: Erai-Raws Video: 1080p, x265 10bit Audio: Untouched Subtitles: Untouched.

All categories Anime - Anime Music Video - English-translated - ed - Raw Audio - Lossless - Lossy Literature - English-translated - ed - Raw Live Action - English-translated - Idol/Promotional Video - ed - Raw Pictures - Graphics - Photos Software - Applications - Games. One Punch Man S02E12 (1080p WEBRip x265 HEVC 10bit AAC . theincognito).

4 minutes ago. community bluray x265.

22. MB. Description. 4 minutes ago.

1080P is what i prefer. Cuz most of us is gonna watch them once so why don't watch in the best quality?

2019-04-23 20:56 UTC. You guys don't do 720p releases? Awesome qualty, btw. save. 2019-04-23 21:06 UTC. hope if you can provide 720p it will be great. theincognito (uploader). 1080P is what i prefer. Cuz most of us is gonna watch them once so why don't watch in the best quality? ncognito keep up the good work! Opinion. 2019-04-24 12:12 UTC. hevc encoders are few, why? theincognito (uploader). 2019-04-24 17:21 UTC. kersZA :D akibara Of course, mate! : D ion Aah. Maybe the encoding time, I guess. theincognito (uploader) Sorry mate.

33.

Starring: Makoto Furukawa, Kaito Ishikawa, Max Mittelman and others. In a world of superhuman beings, Saitama is a unique hero, he can defeat enemies with a single punch. and worst of all, he lost his hair due to intense training. These are the adventures of an ordinary yet extraordinary hero.

Source: HorribleSubsAudio: UntouchedSubtitle: Erai-raws.

Writing frontend : StaxRip v.

mkv (17. MB). Writing frontend : StaxRip v. Video ID : 1 Format : HEVC Format/Info : High Efficiency Video Coding Format profile : Main Codec ID : V MPEGH/ISO/HEVC Duration : 23 min 50 s Bit rate : 907 kb/s Width : 1 920 pixels Height : 1 080 pixels Display aspect ratio : 16:9 Frame rate mode : Constant Frame rate : 2. 76 (24000/1001) FPS Color space : YUV Chroma subsampling : 4

All categories Anime - Anime Music Video - English-translated - ed - Raw Audio - Lossless - Lossy Literature .


Media Information


Code:

General
Format : Matroska
Format version : Version 4 / Version 2
File size : 227 MiB
Duration : 23 min 51 s
Overall bit rate : 1 332 kb/s
Encoded date : UTC 2019-04-23 17:42:10
Writing application : mkvmerge v33.1.0 ('Primrose') 64-bit
Writing library : libebml v1.3.7 + libmatroska v1.5.0
Writing frontend : StaxRip v2.0.0.1
Video
ID : 1
Format : HEVC
Format/Info : High Efficiency Video Coding
Format profile : Main [email protected]@Main
Codec ID : V_MPEGH/ISO/HEVC
Duration : 23 min 50 s
Bit rate : 1 202 kb/s
Width : 1 920 pixels
Height : 1 080 pixels
Display aspect ratio : 16:9
Frame rate mode : Constant
Frame rate : 23.976 (24000/1001) FPS
Color space : YUV
Chroma subsampling : 4:2:0
Bit depth : 10 bits
Bits/(Pixel*Frame) : 0.024
Stream size : 205 MiB (90%)
Default : Yes
Forced : No
Audio
ID : 2
Format : AAC
Format/Info : Advanced Audio Codec
Format profile : LC
Codec ID : A_AAC
Duration : 23 min 50 s
Bit rate : 128 kb/s
Channel(s) : 2 channels
Channel positions : Front: L R
Sampling rate : 44.1 kHz
Frame rate : 43.066 FPS (1024 spf)
Compression mode : Lossy
Delay relative to video : 10 ms
Stream size : 21.8 MiB (10%)
Language : Japanese
Default : Yes
Forced : No
Subtitle #1
ID : 3
Format : ASS
Codec ID : S_TEXT/ASS
Codec ID/Info : Advanced Sub Station Alpha
Duration : 23 min 47 s
Bit rate : 158 b/s
Count of elements : 404
Compression mode : Lossless
Stream size : 27.7 KiB (0%)
Title : English(US)
Language : English
Default : Yes
Forced : No
Subtitle #2
ID : 4
Format : ASS
Codec ID : S_TEXT/ASS
Codec ID/Info : Advanced Sub Station Alpha
Duration : 23 min 47 s
Bit rate : 200 b/s
Count of elements : 404
Compression mode : Lossless
Stream size : 34.9 KiB (0%)
Title : Arabic
Language : Arabic
Default : No
Forced : No
Subtitle #3
ID : 5
Format : ASS
Codec ID : S_TEXT/ASS
Codec ID/Info : Advanced Sub Station Alpha
Duration : 23 min 49 s
Bit rate : 133 b/s
Count of elements : 373
Compression mode : Lossless
Stream size : 23.4 KiB (0%)
Title : Espanol(Espana)
Language : Spanish
Default : No
Forced : No
Subtitle #4
ID : 6
Format : ASS
Codec ID : S_TEXT/ASS
Codec ID/Info : Advanced Sub Station Alpha
Duration : 23 min 47 s
Bit rate : 161 b/s
Count of elements : 401
Compression mode : Lossless
Stream size : 28.1 KiB (0%)
Title : Portugues(Portugal)
Language : Portuguese
Default : No
Forced : No
Subtitle #5
ID : 7
Format : ASS
Codec ID : S_TEXT/ASS
Codec ID/Info : Advanced Sub Station Alpha
Duration : 23 min 49 s
Bit rate : 230 b/s
Count of elements : 394
Compression mode : Lossless
Stream size : 40.1 KiB (0%)
Title : Russian
Language : Russian
Default : No
Forced : No
Images:
https://extraimage.net/images/2019/04/22/2c2b1e333ab5b1fba9f2b72a377615fd.png

Related at One Punch Man S02E03 :
© 2019 www.gphi.it | Contacts | DMCA | Privacy Policy