» » Sword Art Online - Alicization - War of Underworld 08 1080p WEBRip x265 HEVC 10bit OPUS 2.0 theincognito
Language: Japanese
Size: 317.8 MB
Rating: 4.4
Category: Subbed
Votes: 255
Sword Art Online - Alicization - War of Underworld 08 1080p WEBRip x265 HEVC 10bit OPUS 2.0 theincognito
Files:
  • Sword.Art.Online.Alicization.War.of.Underworld.08.1080p.WEBRip.x265.HEVC.10bit.OPUS.2.0-theincognito.mkv (317.8 MB)


2019-12-01 03:44 UTC. Submitter: theincognito.

2019-12-01 03:44 UTC.

Untitled10 sec ago. Bow21 sec ago. Untitled51 sec ago.

Watch Online feature. mock the week s18e03. 1 minute ago. witchboard. 7 minutes ago. women of mafia 2018.

Second part of Sword Art Online: Alicization.

If you want to get the torrent file or original data of Sword. mkv, please use uTorrent, BaiduNetdisk, BitTorrent or Thunder. If the content above is not authorized, please contact us via bthaha. com( is replaced by @).

You cannot download any of those files from here. title: Kaleido Star 24 2s, salt p 1s, juc 941 madonna 1s, the purge tv series 1s, title: Dave Sim Cerebus The Aardvark 112113 0s, title%3A PCWorld 1s, bell'italia 0s, slacker 1991 1s, ktv 群交 2s, My New Life 0s.

Powered by TT Page Generated In . 21276 secs.





Code:

General
Format : Matroska
Format version : Version 4
File size : 318 MiB
Duration : 23 min 40 s
Overall bit rate : 1 876 kb/s
Encoded date : UTC 2019-12-01 03:40:56
Writing application : mkvmerge v40.0.0 ('Old Town Road + Pony') 64-bit
Writing library : libebml v1.3.9 + libmatroska v1.5.2
Attachments : BELLGOTHIC-BOLD.TTF / FUTURA.OTF / GandhiSans-Bold.otf / GandhiSans-BoldItalic.otf / OPTIMALTSTD-BOLD.OTF / QUADRAAT-BOLD.OTF
Video
ID : 1
Format : HEVC
Format/Info : High Efficiency Video Coding
Format profile : Main [email protected]@Main
Codec ID : V_MPEGH/ISO/HEVC
Duration : 23 min 40 s
Bit rate : 1 771 kb/s
Width : 1 920 pixels
Height : 1 080 pixels
Display aspect ratio : 16:9
Frame rate mode : Constant
Frame rate : 23.976 (24000/1001) FPS
Color space : YUV
Chroma subsampling : 4:2:0
Bit depth : 10 bits
Bits/(Pixel*Frame) : 0.036
Stream size : 300 MiB (94%)
Writing library : x265 3.2+18-f0fe46ce379d:[Windows][MSVC 1923][64 bit] 10bit
Encoding settings : cpuid=1111039 / frame-threads=3 / numa-pools=8 / wpp / no-pmode / no-pme / no-psnr / no-ssim / log-level=2 / input-csp=1 / input-res=1920x1080 / interlace=0 / total-frames=34046 / level-idc=0 / high-tier=1 / uhd-bd=0 / ref=4 / no-allow-non-conformance / no-repeat-headers / annexb / no-aud / no-hrd / info / hash=0 / no-temporal-layers / open-gop / min-keyint=23 / keyint=250 / gop-lookahead=0 / bframes=6 / b-adapt=2 / b-pyramid / bframe-bias=0 / rc-lookahead=25 / lookahead-slices=4 / scenecut=40 / hist-scenecut=0 / radl=0 / no-splice / no-intra-refresh / ctu=64 / min-cu-size=8 / no-rect / no-amp / max-tu-size=32 / tu-inter-depth=1 / tu-intra-depth=1 / limit-tu=0 / rdoq-level=2 / dynamic-rd=0.00 / no-ssim-rd / signhide / no-tskip / nr-intra=0 / nr-inter=0 / no-constrained-intra / no-strong-intra-smoothing / max-merge=3 / limit-refs=3 / limit-modes / me=2 / subme=3 / merange=26 / temporal-mvp / no-frame-dup / hme / Level / weightp / no-weightb / no-analyze-src-pics / deblock=1:1 / no-sao / no-sao-non-deblock / rd=3 / selective-sao=0 / no-early-skip / rskip / no-fast-intra / no-tskip-fast / no-cu-lossless / no-b-intra / no-splitrd-skip / rdpenalty=0 / psy-rd=0.40 / psy-rdoq=1.00 / no-rd-refine / no-lossless / cbqpoffs=0 / crqpoffs=0 / rc=crf / crf=23.0 / qcomp=0.60 / qpstep=4 / stats-write=0 / stats-read=0 / ipratio=1.40 / pbratio=1.30 / aq-mode=3 / aq-strength=0.40 / cutree / zone-count=0 / no-strict-cbr / qg-size=32 / no-rc-grain / qpmax=69 / qpmin=0 / no-const-vbv / sar=0 / overscan=0 / videoformat=5 / range=0 / colorprim=2 / transfer=2 / colormatrix=2 / chromaloc=0 / display-window=0 / cll=0,0 / min-luma=0 / max-luma=1023 / log2-max-poc-lsb=8 / vui-timing-info / vui-hrd-info / slices=1 / no-opt-qp-pps / no-opt-ref-list-length-pps / no-multi-pass-opt-rps / scenecut-bias=0.05 / hist-threshold=0.01 / no-opt-cu-delta-qp / no-aq-motion / no-hdr / no-hdr-opt / no-dhdr10-opt / no-idr-recovery-sei / analysis-reuse-level=5 / scale-factor=0 / refine-intra=0 / refine-inter=0 / refine-mv=1 / refine-ctu-distortion=0 / no-limit-sao / ctu-info=0 / no-lowpass-dct / refine-analysis-type=0 / copy-pic=1 / max-ausize-factor=1.0 / no-dynamic-refine / no-single-sei / no-hevc-aq / no-svt / no-field / qp-adaptation-range=1.00 / no-scenecut-aware-qp
Default : Yes
Forced : No
Audio
ID : 2
Format : Opus
Codec ID : A_OPUS
Duration : 23 min 40 s
Bit rate : 95.3 kb/s
Channel(s) : 2 channels
Channel layout : L R
Sampling rate : 48.0 kHz
Frame rate : 50.000 FPS (960 SPF)
Compression mode : Lossy
Stream size : 16.1 MiB (5%)
Language : Japanese
Default : Yes
Forced : No
Text
ID : 3
Format : ASS
Codec ID : S_TEXT/ASS
Codec ID/Info : Advanced Sub Station Alpha
Duration : 23 min 37 s
Bit rate : 6 850 b/s
Count of elements : 543
Compression mode : Lossless
Stream size : 1.16 MiB (0%)
Title : Honorifics
Language : enm
Default : Yes
Forced : No
Menu
00:00:00.033 : en:Intro
00:01:04.960 : en:OP
00:02:34.940 : en:Episode
00:22:04.970 : en:ED
00:23:34.980 : en:Preview
Images:
https://extraimage.net/images/2019/07/30/b815c9608045a1b8810a2fa618f1cec5.png|https://extraimage.net/images/2019/12/01/cf8b9dfa63d5a80f012bc0b1dbf6ad81.jpg|https://extraimage.net/images/2019/12/01/d41c772f04d540b2cc9fcd1da0ce0456.jpg|https://extraimage.net/images/2019/12/01/8d951697e5f487c6ccc65f0a6031a1aa.jpg|https://extraimage.net/images/2019/12/01/05ba1c3e02225ff450f1b6de1a13e175.jpg

Related at Sword Art Online - Alicization - War of Underworld 08 :
© 2019 www.gphi.it | Contacts | DMCA | Privacy Policy