» » Dragon Ball Super 124 Eng Sub 720p WEB-DL x265 HEVC 10bit AAC 2.0 theincognito
Language: English
Size: 187.8 MB
Rating: 4.8
Category: Subbed
Votes: 892
Dragon Ball Super 124 Eng Sub 720p WEB-DL x265 HEVC 10bit AAC 2.0 theincognito
Files:
  • Dragon Ball Super 124 Eng Sub(720p WEB-DL x265 HEVC 10bit AAC 2.0 theincognito) [UTR].mkv (187.8 MB)


Dragon Ball Super Broly 1080p Eng (Re-rendered). Posted in English-translated.

mkv (. 3 GB). Dragon. Dragon Ball Super Broly 1080p Eng (Re-rendered).

Dragon Ball Super The Movie: Broly (2018) . Dragon Ball Super Movie - Broly (WEBRip 720p Hi444PP EAC3)

Dragon Ball Super The Movie: Broly (2018) . Dragon Ball Super Movie - Broly (WEBRip 720p Hi444PP EAC3). Dragon Ball Super - Broly (1080p WEB-DL x265 HEVC 10bit AAC . theincognito). Dragon Ball Super - Broly (720p WEB-DL x265 HEVC 10bit AAC .

10 hours ago Python Data Science: The Ultimate Crash Course, Tips, and Tricks to Learn Data Analytics, Machine Learning. 9 hours ago 4K Video Downloader . 0. 20 hours ago Windows 7 Ultimate . 24535 SP1 Lite (Build 24535) - November 2019.

Video: 1080p,x265 10bit Audio: Untouched from source Subtitle: Untouched from source. Feedback appreciated!

Video: 1080p,x265 10bit Audio: Untouched from source Subtitle: Untouched from source. Feedback appreciated! Files.





Media Information

Media Information


Code:

General
Format                                   : Matroska
Format version                           : Version 4 / Version 2
File size                                : 188 MiB
Duration                                 : 23 min 38 s
Overall bit rate                         : 1 111 kb/s
Encoded date                             : UTC 2018-01-21 03:49:41
Writing application                      : mkvmerge v20.0.0 ('I Am The Sun') 64-bit
Writing library                          : libebml v1.3.5 + libmatroska v1.4.8
Video
ID                                       : 1
Format                                   : HEVC
Format/Info                              : High Efficiency Video Coding
Format profile                           : Main [email protected]@Main
Codec ID                                 : V_MPEGH/ISO/HEVC
Duration                                 : 23 min 37 s
Bit rate                                 : 981 kb/s
Width                                    : 1 280 pixels
Height                                   : 720 pixels
Display aspect ratio                     : 16:9
Frame rate mode                          : Constant
Frame rate                               : 23.976 (24000/1001) FPS
Color space                              : YUV
Chroma subsampling                       : 4:2:0
Bit depth                                : 10 bits
Bits/(Pixel*Frame)                       : 0.044
Stream size                              : 166 MiB (88%)
Writing library                          : x265 2.6+13-6b079854e56e:[Linux][GCC 6.4.0][64 bit] 10bit
Encoding settings                        : cpuid=1173503 / frame-threads=3 / wpp / no-pmode / no-pme / no-psnr / no-ssim / log-level=2 / input-csp=1 / input-res=1280x720 / interlace=0 / total-frames=0 / level-idc=0 / high-tier=1 / uhd-bd=0 / ref=3 / no-allow-non-conformance / no-repeat-headers / annexb / no-aud / no-hrd / info / hash=0 / no-temporal-layers / open-gop / min-keyint=23 / keyint=250 / gop-lookahead=0 / bframes=4 / b-adapt=2 / b-pyramid / bframe-bias=0 / rc-lookahead=20 / lookahead-slices=4 / scenecut=40 / no-intra-refresh / ctu=64 / min-cu-size=8 / no-rect / no-amp / max-tu-size=32 / tu-inter-depth=1 / tu-intra-depth=1 / limit-tu=0 / rdoq-level=0 / dynamic-rd=0.00 / no-ssim-rd / signhide / no-tskip / nr-intra=0 / nr-inter=0 / no-constrained-intra / strong-intra-smoothing / max-merge=2 / limit-refs=3 / no-limit-modes / me=1 / subme=2 / merange=57 / temporal-mvp / weightp / no-weightb / no-analyze-src-pics / deblock=0:0 / sao / no-sao-non-deblock / rd=3 / no-early-skip / rskip / no-fast-intra / no-tskip-fast / no-cu-lossless / no-b-intra / no-splitrd-skip / rdpenalty=0 / psy-rd=0.35 / psy-rdoq=0.00 / no-rd-refine / analysis-reuse-mode=0 / no-lossless / cbqpoffs=0 / crqpoffs=0 / rc=crf / crf=23.0 / qcomp=0.60 / qpstep=4 / stats-write=0 / stats-read=0 / ipratio=1.40 / pbratio=1.30 / aq-mode=1 / aq-strength=1.00 / cutree / zone-count=0 / no-strict-cbr / qg-size=32 / no-rc-grain / qpmax=69 / qpmin=0 / no-const-vbv / sar=1 / overscan=0 / videoformat=5 / range=0 / colorprim=2 / transfer=2 / colormatrix=2 / chromaloc=0 / display-window=0 / max-cll=0,0 / min-luma=0 / max-luma=1023 / log2-max-poc-lsb=8 / vui-timing-info / vui-hrd-info / slices=1 / no-opt-qp-pps / no-opt-ref-list-length-pps / no-multi-pass-opt-rps / scenecut-bias=0.05 / no-opt-cu-delta-qp / no-aq-motion / no-hdr / no-hdr-opt / no-dhdr10-opt / analysis-reuse-level=5 / scale-factor=0 / refine-intra=0 / refine-inter=0 / refine-mv=0 / no-limit-sao / ctu-info=0 / no-lowpass-dct / refine-mv-type=0 / copy-pic=1
Default                                  : Yes
Forced                                   : No
Audio
ID                                       : 2
Format                                   : AAC
Format/Info                              : Advanced Audio Codec
Format profile                           : LC
Codec ID                                 : A_AAC-2
Duration                                 : 23 min 37 s
Bit rate                                 : 128 kb/s
Channel(s)                               : 2 channels
Channel positions                        : Front: L R
Sampling rate                            : 44.1 kHz
Frame rate                               : 43.066 FPS (1024 SPF)
Compression mode                         : Lossy
Delay relative to video                  : -83 ms
Stream size                              : 21.6 MiB (12%)
Default                                  : Yes
Forced                                   : No
Subtitle
ID                                       : 3
Format                                   : ASS
Codec ID                                 : S_TEXT/ASS
Codec ID/Info                            : Advanced Sub Station Alpha
Duration                                 : 23 min 21 s
Bit rate                                 : 106 b/s
Count of elements                        : 281
Compression mode                         : Lossless
Stream size                              : 18.2 KiB (0%)
Language                                 : English
Default                                  : Yes
Forced                                   : No

Source Information


Code:

Release:
Unknown Source/NO-GROUP
Images:
https://extraimage.net/images/2017/06/06/569a270b27f97abd89d97da7d6f4195f.png|https://extraimage.net/images/2018/01/21/2945fe0ae63dd1735a8fd3c15ef8e0f5.jpg|https://extraimage.net/images/2018/01/21/0639406c997fd413e28979795b002756.jpg|https://extraimage.net/images/2018/01/21/82d7048b50d0c071d2a8a9235a9b0230.jpg

Related at Dragon Ball Super 124 Eng Sub :
© 2019 www.gphi.it | Contacts | DMCA | Privacy Policy