» » One Piece - 862 480p EngSub
Language: Japanese
Size: 178.1 MB
Rating: 4.4
Category: Subbed
Votes: 566
One Piece - 862 480p EngSub
Files:
  • [60mbAnime.com] One Piece - 862 [480p][EngSub].mkv (178.1 MB)


САМЫЙ СТРАШНЫЙ ЧЕЛОВЕК Ван Писа.

САМЫЙ СТРАШНЫЙ ЧЕЛОВЕК Ван Писа. Адмирал Акаину Обзор One Piece - Продолжительность: 21:35 MIZAR Recommended for you. 21:35.

Watch full One Piece Season 19 Episode 80 English Subbed full HD online. One Piece Episode 862 English Subbed online for free in HD. Sulong! Carrot's Big Mystic Transf. One Piece Episode 861 English Subbed. One Piece Episode 863 English Subbed. Video Errors & Solutions. Attention : About %80 of broken-missing video reports we recieve are invalid so that we believe the problems are caused by you, your computer or something else.

General Complete name : One Piece - 862.

Type: Acnimation, Adventure, Comedy. One Piece Episode 912 Eng Sub Updated. Sword Art Online: Alicization S03 War of Underworld EP 07 Updated

Type: Acnimation, Adventure, Comedy. Encoded By: Coolsanime. One Piece Episodes English Subbed 480p 720p HD Compressed. Sword Art Online: Alicization S03 War of Underworld EP 07 Updated.

You Are Watching One Piece episode 862 Subbed English Dubbed/Subbed in High Quality Encoded in 1080p, 720p, 480p for free. One Piece episode 862 Subbed. Download One Piece episode 862 Subbed Dubbed/Subbed in High Quality.

PureToons4 months agoAugust 8, 20191 One Piece English Subbed Episodes. When he was captured and about to be executed, he revealed that his treasure called One Piece was hidden somewhere at the Grand Line

PureToons4 months agoAugust 8, 20191 One Piece English Subbed Episodes. Summary: There once lived a pirate named Gol D. Roger. When he was captured and about to be executed, he revealed that his treasure called One Piece was hidden somewhere at the Grand Line.


General
Complete name : [60mbAnime.com] One Piece - 862 [480p][EngSub].mkv
Format : Matroska
Format version : Version 4
File size : 178 MiB
Duration : 23 min 55 s
Overall bit rate : 1 041 kb/s
Encoded date : UTC 2010-02-22 21:41:29
Writing application : no_variable_data
Writing library : no_variable_data
Attachments : OpenSans-Semibold.ttf
Video
ID : 1
Format : AVC
Format/Info : Advanced Video Codec
Format profile : [email protected]
Format settings : CABAC / 6 Ref Frames
Format settings, CABAC : Yes
Format settings, RefFrames : 6 frames
Codec ID : V_MPEG4/ISO/AVC
Duration : 23 min 55 s
Bit rate : 941 kb/s
Width : 848 pixels
Height : 480 pixels
Display aspect ratio : 16:9
Frame rate mode : Constant
Frame rate : 23.976 (24000/1001) FPS
Color space : YUV
Chroma subsampling : 4:2:0
Bit depth : 8 bits
Scan type : Progressive
Bits/(Pixel*Frame) : 0.096
Stream size : 161 MiB (90%)
Writing library : x264 core 142
Encoding settings : cabac=1 / ref=6 / deblock=1:1:1 / analyse=0x1:0x111 / me=umh / subme=8 / psy=1 / psy_rd=0.40:0.00 / mixed_ref=1 / me_range=16 / chroma_me=1 / trellis=1 / 8x8dct=0 / cqm=0 / deadzone=21,11 / fast_pskip=1 / chroma_qp_offset=-2 / threads=6 / lookahead_threads=1 / sliced_threads=0 / nr=0 / decimate=1 / interlaced=0 / bluray_compat=0 / constrained_intra=0 / bframes=5 / b_pyramid=2 / b_adapt=2 / b_bias=0 / direct=3 / weightb=1 / open_gop=0 / weightp=2 / keyint=48 / keyint_min=25 / scenecut=0 / intra_refresh=0 / rc_lookahead=48 / rc=crf / mbtree=1 / crf=17.0 / qcomp=0.60 / qpmin=0 / qpmax=69 / qpstep=4 / vbv_maxrate=2000 / vbv_bufsize=3000 / crf_max=0.0 / nal_hrd=none / filler=0 / ip_ratio=1.40 / aq=1:0.60
Default : Yes
Forced : No
Audio
ID : 2
Format : AAC LC
Format/Info : Advanced Audio Codec Low Complexity
Codec ID : A_AAC-2
Duration : 23 min 55 s
Bit rate : 96.0 kb/s
Channel(s) : 2 channels
Channel layout : L R
Sampling rate : 44.1 kHz
Frame rate : 43.066 FPS (1024 SPF)
Compression mode : Lossy
Delay relative to video : -83 ms
Stream size : 16.4 MiB (9%)
Language : Japanese
Default : Yes
Forced : No
Text
ID : 3
Format : ASS
Codec ID : S_TEXT/ASS
Codec ID/Info : Advanced Sub Station Alpha
Duration : 23 min 31 s
Bit rate : 118 b/s
Count of elements : 317
Compression mode : Lossless
Stream size : 20.5 KiB (0%)
Language : English
Default : Yes
Forced : No

Images:
https://imgdrive.net/images/small/2018/11/18/5bf10ba02885c.jpg

Related at One Piece - 862 :
© 2019 www.gphi.it | Contacts | DMCA | Privacy Policy