» » One Piece - 868 480p EngSub
Language: Japanese
Size: 216.8 MB
Rating: 4.3
Category: Subbed
Votes: 373
One Piece - 868 480p EngSub
Files:
  • [60mbAnime.com] One Piece - 868 [480p][EngSub].mkv (216.8 MB)


Watch full One Piece Season 19 Episode 86 English Subbed full HD online. One Piece Episode 868 English Subbed online for free in HD.

Watch full One Piece Season 19 Episode 86 English Subbed full HD online.

You Are Watching One Piece episode 868 Subbed English Dubbed/Subbed in High Quality Encoded in 1080p, 720p, 480p for free. One Piece episode 868 Subbed. Download One Piece episode 868 Subbed Dubbed/Subbed in High Quality. One Piece English Subbed - 13 January 2019. One Piece Episode 867 English Subbed. One Piece Episode 869 English Subbed. Video Errors & Solutions. Attention : About %80 of broken-missing video reports we recieve are invalid so that we believe the problems are caused by you, your computer or something else.

All categories Anime - Anime Music Video - English-translated - ed - Raw Audio - Lossless - Lossy Literature .

All categories Anime - Anime Music Video - English-translated - ed - Raw Audio - Lossless - Lossy Literature - English-translated - ed - Raw Live Action - English-translated - Idol/Promotional Video - ed - Raw Pictures - Graphics - Photos Software - Applications - Games.

Страна: США. Безопасный режим: выкл.

One Piece Top 20 Strongest Devil Fruit Users - Продолжительность: 21:12 Jeong Sheng Recommended for you. 21:12. One Piece AMV - My Captain Is Unstoppable HD ☠ - Продолжительность: 7:55 Dark D. King Recommended for you. 7:55. Страна: США.

Watch full One Piece Season 19 Episode 132 English Subbed full HD online. One Piece English Subbed - 15 December 2019. One Piece Episode 913 English Subbed. Attention: About %80 of broken-missing video reports we recieve are invalid so that we believe the problems are caused by you, your computer or something else.

General Complete name : One Piece - 868.

Home One Piece English Subbed One Piece Episode 868 English Subbed. Watch One Piece Episode 868 in High HD Quality online on ww. nepiece360. One Piece Episode 868 English Subbed. by admin January 13, 2019. You Are watching One Piece Episode 868. Episode 868 in the TV Anime Series One Piece.


General
Complete name : [60mbAnime.com] One Piece - 868 [480p][EngSub].mkv
Format : Matroska
Format version : Version 4
File size : 217 MiB
Duration : 23 min 50 s
Overall bit rate : 1 271 kb/s
Encoded date : UTC 2010-02-22 21:41:29
Writing application : no_variable_data
Writing library : no_variable_data
Attachments : OpenSans-Semibold.ttf
Video
ID : 1
Format : AVC
Format/Info : Advanced Video Codec
Format profile : [email protected]
Format settings : CABAC / 6 Ref Frames
Format settings, CABAC : Yes
Format settings, RefFrames : 6 frames
Codec ID : V_MPEG4/ISO/AVC
Duration : 23 min 50 s
Bit rate : 1 172 kb/s
Width : 848 pixels
Height : 480 pixels
Display aspect ratio : 16:9
Frame rate mode : Constant
Frame rate : 23.976 (24000/1001) FPS
Color space : YUV
Chroma subsampling : 4:2:0
Bit depth : 8 bits
Scan type : Progressive
Bits/(Pixel*Frame) : 0.120
Stream size : 200 MiB (92%)
Writing library : x264 core 142
Default : Yes
Forced : No
Audio
ID : 2
Format : AAC LC
Format/Info : Advanced Audio Codec Low Complexity
Codec ID : A_AAC-2
Duration : 23 min 50 s
Bit rate : 96.0 kb/s
Channel(s) : 2 channels
Channel layout : L R
Sampling rate : 44.1 kHz
Frame rate : 43.066 FPS (1024 SPF)
Compression mode : Lossy
Delay relative to video : -83 ms
Stream size : 16.4 MiB (8%)
Language : Japanese
Default : Yes
Forced : No
Text
ID : 3
Format : ASS
Codec ID : S_TEXT/ASS
Codec ID/Info : Advanced Sub Station Alpha
Duration : 23 min 31 s
Bit rate : 105 b/s
Count of elements : 282
Compression mode : Lossless
Stream size : 18.2 KiB (0%)
Language : English
Default : Yes
Forced : No

Images:
https://imgdrive.net/images/small/2019/01/13/5c3af56d17b58.jpg

Related at One Piece - 868 :
© 2019 www.gphi.it | Contacts | DMCA | Privacy Policy