» » Space Dandy S2 1080p x265 HEVC 10bit AAC 5.1 Eng Dub
Language: English
Size: 7.7 GB
Rating: 4.5
Category: Subbed
Votes: 667
Space Dandy S2 1080p x265 HEVC 10bit AAC 5.1 Eng Dub
Files:
[Prof] Space Dandy Season 2
  • 5.mkv (492.9 MB)
  • 8.mkv (510.5 MB)
  • 6.mkv (541.3 MB)
  • 10.mkv (545.7 MB)
  • 2.mkv (550.5 MB)
  • 7.mkv (570.8 MB)
  • 4.mkv (584.5 MB)
  • 1.mkv (589.8 MB)
  • 3.mkv (641.4 MB)
  • 11.mkv (667.7 MB)
  • 9.mkv (707.0 MB)
  • 12.mkv (710.4 MB)
  • 13.mkv (781.5 MB)


1Format : HEVCFormat/Info : High Efficiency Video CodingFormat profile : Main .

1Format : HEVCFormat/Info : High Efficiency Video CodingFormat profile : Main .

Audio ID : 2 Format : AAC Format/Info : Advanced Audio Codec Format profile : LC Codec ID : A AAC Duration : 24 min 11 s Bit rate : 235 kb/s Channel(s) : 6 channels Channel positions : Front: L C R, Side: L R, LFE Sampling rate : 4. kHz Frame rate : 4. 75 FPS (1024 spf) Compression mode : Lossy Delay relative to video : 9 ms Stream.

The Good Doctor S03E10 MEGA Dr. Shaun Murphy visits his father on his deathbed and the reunion reveals unexpected . Shaun Murphy visits his father on his deathbed and the reunion reveals unexpected results. Meanwhile, Dr. Neil Melendez, Dr. Alex Park, Dr. Morgan Reznick and Dr. Claire Browne treat. All American S02E08 HDTV x264-KILLERS + 720p x265 + 1080p x265. All American S02E08 MEGA With everything going on, Spencer can’t get excited about his football ranking and gets some guidance from Layla, who in turn realizes it might not be the best advice for anyone, Leave a Reply Cancel reply.

Audio Books & Poetry Community Audio Computers & Technology Music, Arts & Culture News & Public Affairs Non-English Audio Radio Programs. ark:/13960/t8bg7kw1r. Librivox Free Audiobook. Spirituality & Religion Podcasts. Internet Archive HTML5 Uploader .

The cosmic and comic adventures of Space Dandy, a handsome space explorer tasked to tour the . Space Dandy Season1 1080p DUAL-AUDIO x265 HEVC AAC 10bit. rar Space Dandy Season1 1080p DUAL-AUDIO x265 HEVC AAC 10bit.

The cosmic and comic adventures of Space Dandy, a handsome space explorer tasked to tour the universe and discover new alien beings. Space Dandy Season 1 1080p x265 HEVC AAC.

Format/Info : High Efficiency Video Coding. Format profile : Main [email protected]

Overall bit rate : 2 810 Kbps. Encoded date : UTC 2016-10-04 04:20:12. Writing application : mkvmerge v. Writing library : libebml v. ID : 1. Format : HEVC. Format/Info : High Efficiency Video Coding. Codec ID : V MPEGH/ISO/HEVC. Bit rate : 2 469 Kbps.

File Container: MKV Video Format: . 65/HEVC Video Resolution: 1920x1080 Aspect Ratio: 1. Audio Type: Mixed Track 1: English (. Surround) (default) Track 2: Japanese (. Surround). Audio Format: AAC-LC. Subtitles: (VobSub) Track 1: English Signs/Song Retail Track 2: English Subs Retail. Video Source: Moozzi2. I have provided a few of screenshots for comparison.

Thanks for downloading, Enjoy your Anime (o˘◡˘o)

Format : Matroska
Format version : Version 4 / Version 2
File size : 590 MiB
Duration : 24 min 12 s
Overall bit rate : 3 407 kb/s
Movie name : Disc 1
Encoded date : UTC 2017-11-28 14:52:29
Writing application : mkvmerge v9.6.0 ('Slave To Your Mind') 64bit
Writing library : libebml v1.3.4 + libmatroska v1.4.5
Video
ID : 1
Format : HEVC
Format/Info : High Efficiency Video Coding
Format profile : Main [email protected]@Main
Codec ID : V_MPEGH/ISO/HEVC
Duration : 24 min 12 s
Bit rate : 3 134 kb/s
Width : 1 920 pixels
Height : 1 080 pixels
Display aspect ratio : 16:9
Frame rate mode : Constant
Frame rate : 23.976 (24000/1001) FPS
Color space : YUV
Chroma subsampling : 4:2:0
Bit depth : 10 bits
Bits/(Pixel*Frame) : 0.063
Stream size : 543 MiB (92%)
Writing library : x265 2.1+69-c97c64ab8b8e:[Windows][GCC 6.2.0][64 bit] 10bit
Encoding settings : cpuid=1173503 / frame-threads=2 / numa-pools=4 / wpp / no-pmode / no-pme / no-psnr / no-ssim / log-level=2 / input-csp=1 / input-res=1920x1080 / interlace=0 / total-frames=34814 / level-idc=0 / high-tier=1 / uhd-bd=0 / ref=4 / no-allow-non-conformance / no-repeat-headers / annexb / no-aud / no-hrd / info / hash=0 / no-temporal-layers / open-gop / min-keyint=23 / keyint=250 / bframes=4 / b-adapt=2 / b-pyramid / bframe-bias=0 / rc-lookahead=25 / lookahead-slices=4 / scenecut=40 / no-intra-refresh / ctu=64 / min-cu-size=8 / rect / no-amp / max-tu-size=32 / tu-inter-depth=1 / tu-intra-depth=1 / limit-tu=0 / rdoq-level=2 / signhide / no-tskip / nr-intra=0 / nr-inter=0 / no-constrained-intra / strong-intra-smoothing / max-merge=3 / limit-refs=3 / limit-modes / me=3 / subme=3 / merange=57 / temporal-mvp / weightp / no-weightb / no-analyze-src-pics / deblock=0:0 / sao / no-sao-non-deblock / rd=4 / no-early-skip / rskip / no-fast-intra / no-tskip-fast / no-cu-lossless / no-b-intra / rdpenalty=0 / psy-rd=2.00 / psy-rdoq=1.00 / no-rd-refine / analysis-mode=0 / no-lossless / cbqpoffs=0 / crqpoffs=0 / rc=crf / crf=19.0 / qcomp=0.60 / qpstep=4 / stats-write=0 / stats-read=0 / ipratio=1.40 / pbratio=1.30 / aq-mode=1 / aq-strength=1.00 / cutree / zone-count=0 / no-strict-cbr / qg-size=32 / no-rc-grain / qpmax=69 / qpmin=0 / sar=0 / overscan=0 / videoformat=5 / range=0 / colorprim=2 / transfer=2 / colormatrix=2 / chromaloc=0 / display-window=0 / max-cll=0,0 / min-luma=0 / max-luma=1023 / log2-max-poc-lsb=8 / vui-timing-info / vui-hrd-info / slices=1 / opt-qp-pps / opt-ref-list-length-pps / no-multi-pass-opt-rps / scenecut-bias=0.05
Default : Yes
Forced : No
Audio
ID : 2
Format : AAC
Format/Info : Advanced Audio Codec
Format profile : LC
Codec ID : A_AAC
Duration : 24 min 12 s
Bit rate : 253 kb/s
Channel(s) : 6 channels
Channel positions : Front: L C R, Side: L R, LFE
Sampling rate : 48.0 kHz
Frame rate : 46.875 FPS (1024 spf)
Compression mode : Lossy
Delay relative to video : 9 ms
Stream size : 43.8 MiB (7%)
Language : English
Default : No
Forced : No
Text #1
ID : 3
Format : PGS
Muxing mode : zlib
Codec ID : S_HDMV/PGS
Codec ID/Info : Picture based subtitle format used on BDs/HD-DVDs
Duration : 24 min 4 s
Bit rate : 15.5 kb/s
Count of elements : 845
Stream size : 2.68 MiB (0%)
Language : English
Default : No
Forced : No
Text #2
ID : 4
Format : PGS
Muxing mode : zlib
Codec ID : S_HDMV/PGS
Codec ID/Info : Picture based subtitle format used on BDs/HD-DVDs
Duration : 23 min 4 s
Bit rate : 1 833 b/s
Count of elements : 90
Stream size : 310 KiB (0%)
Language : English
Default : No
Forced : No
Menu
00:00:00.000 : en:Chapter 01
00:00:41.041 : en:Chapter 02
00:02:12.006 : en:Chapter 03
00:13:48.035 : en:Chapter 04
00:22:26.053 : en:Chapter 05
00:23:56.017 : en:Chapter 06

Images:

Related at Space Dandy S2 :
© 2019 www.gphi.it | Contacts | DMCA | Privacy Policy