» » One Piece - 859 480p
Language: Japanese
Size: 226.5 MB
Rating: 4.3
Category: Subbed
Votes: 965
One Piece - 859 480p
Files:
  • [60mbAnime.com] One Piece - 859 [480p].mkv (226.5 MB)


САМЫЙ СТРАШНЫЙ ЧЕЛОВЕК Ван Писа.

Manga One Piece 859 :book: :trident: ҠѦՏЄі :trident: 03/15/17. 539. 81. :black small square: Manga : One Piece. Into,One Piece,? Join the community. black small square: Capítulo : 859. :black small square: Idioma : Español.

The famous mystery treasure named One Piece.

Release info: One Piece - 859.

Tips: You're reading One Piece 859, please read One Piece 859: Chapter 859 english scan online from right to left. One Piece Chapter Navigation Prev Chapter: One Piece - 858 Next Chapter: One Piece - 860. One Piece Page Navigation 1, 2, 3, 4, 5, 6, 7, 8, 9, 10, 11, 12, 13, 14, 15, 16, 17, Next.


General
Complete name : [60mbAnime.com] One Piece - 859 [480p].mkv
Format : Matroska
Format version : Version 4
File size : 227 MiB
Duration : 23 min 55 s
Overall bit rate : 1 324 kb/s
Encoded date : UTC 2010-02-22 21:41:29
Writing application : no_variable_data
Writing library : no_variable_data
Attachments : OpenSans-Semibold.ttf
Video
ID : 1
Format : AVC
Format/Info : Advanced Video Codec
Format profile : [email protected]
Format settings : CABAC / 6 Ref Frames
Format settings, CABAC : Yes
Format settings, RefFrames : 6 frames
Codec ID : V_MPEG4/ISO/AVC
Duration : 23 min 55 s
Bit rate : 1 224 kb/s
Width : 848 pixels
Height : 480 pixels
Display aspect ratio : 16:9
Frame rate mode : Constant
Frame rate : 23.976 (24000/1001) FPS
Color space : YUV
Chroma subsampling : 4:2:0
Bit depth : 8 bits
Scan type : Progressive
Bits/(Pixel*Frame) : 0.125
Stream size : 209 MiB (92%)
Writing library : x264 core 142
Encoding settings : cabac=1 / ref=6 / deblock=1:1:1 / analyse=0x1:0x111 / me=umh / subme=8 / psy=1 / psy_rd=0.40:0.00 / mixed_ref=1 / me_range=16 / chroma_me=1 / trellis=1 / 8x8dct=0 / cqm=0 / deadzone=21,11 / fast_pskip=1 / chroma_qp_offset=-2 / threads=6 / lookahead_threads=1 / sliced_threads=0 / nr=0 / decimate=1 / interlaced=0 / bluray_compat=0 / constrained_intra=0 / bframes=5 / b_pyramid=2 / b_adapt=2 / b_bias=0 / direct=3 / weightb=1 / open_gop=0 / weightp=2 / keyint=48 / keyint_min=25 / scenecut=0 / intra_refresh=0 / rc_lookahead=48 / rc=crf / mbtree=1 / crf=17.0 / qcomp=0.60 / qpmin=0 / qpmax=69 / qpstep=4 / vbv_maxrate=2000 / vbv_bufsize=3000 / crf_max=0.0 / nal_hrd=none / filler=0 / ip_ratio=1.40 / aq=1:0.60
Default : Yes
Forced : No
Audio
ID : 2
Format : AAC LC
Format/Info : Advanced Audio Codec Low Complexity
Codec ID : A_AAC-2
Duration : 23 min 55 s
Bit rate : 96.0 kb/s
Channel(s) : 2 channels
Channel layout : L R
Sampling rate : 44.1 kHz
Frame rate : 43.066 FPS (1024 SPF)
Compression mode : Lossy
Delay relative to video : -83 ms
Stream size : 16.4 MiB (7%)
Language : Japanese
Default : Yes
Forced : No
Text
ID : 3
Format : ASS
Codec ID : S_TEXT/ASS
Codec ID/Info : Advanced Sub Station Alpha
Duration : 23 min 31 s
Bit rate : 120 b/s
Count of elements : 339
Compression mode : Lossless
Stream size : 20.8 KiB (0%)
Language : English
Default : Yes
Forced : No

Images:
https://imgdrive.net/images/small/2018/10/28/5bd55291e6535.jpg

Related at One Piece - 859 :
© 2019 www.gphi.it | Contacts | DMCA | Privacy Policy