» » Bikini Warriors BD720p Episodes 1-16 English Subbed HEVC_10bit_SmoodFlamez
Language: Japanese
Size: 580.8 MB
Rating: 4.0
Category: Subbed
Votes: 332
Bikini Warriors BD720p Episodes 1-16 English Subbed HEVC_10bit_SmoodFlamez
Files:
Bikini Warriors_BD720p_(HEVC_10bit_SmoodFlamez)
  • Bikini Warriors - 01 .mkv (48.2 MB)
  • Bikini Warriors - 02 .mkv (26.7 MB)
  • Bikini Warriors - 03 .mkv (78.2 MB)
  • Bikini Warriors - 04 .mkv (31.4 MB)
  • Bikini Warriors - 05 .mkv (28.3 MB)
  • Bikini Warriors - 06 .mkv (44.0 MB)
  • Bikini Warriors - 07 .mkv (29.8 MB)
  • Bikini Warriors - 08 .mkv (31.2 MB)
  • Bikini Warriors - 09 .mkv (29.8 MB)
  • Bikini Warriors - 10 .mkv (29.2 MB)
  • Bikini Warriors - 11 .mkv (32.8 MB)
  • Bikini Warriors - 12 .mkv (28.5 MB)
  • Bikini Warriors - 13 .mkv (30.6 MB)
  • Bikini Warriors - 14 .mkv (18.9 MB)
  • Bikini Warriors - 15.mkv (24.1 MB)
  • Bikini Warriors - 16 .mkv (41.0 MB)
  • Bikini Warriors - NCED .mkv (6.7 MB)
  • Posters
    • 1555109_English_KeyArt-OfficialVideoImage_186691e4-a2a2-e811-8175-020165574d09.jpg (518.6 KB)
    • 2018-10-05_092323.png (2.3 MB)
    • 2018-10-05_092341.png (2.2 MB)
    • 2018-10-05_092437.png (2.1 MB)
    • 2018-10-05_092451.png (2.1 MB)
    • 2018-10-05_092504.png (2.2 MB)
    • afbbe64996307b502e5dd76e9fdd2b5d.jpg (141.7 KB)
    • bikini.jpg (632.5 KB)
    • maxresdefault (1).jpg (89.9 KB)
    • maxresdefault.jpg (130.7 KB)
    Screenshots
    • 2018-10-05_141526.png (1.9 MB)
    • 2018-10-05_141715.png (1.8 MB)
    • 2018-10-05_141725.png (1.6 MB)
    • 2018-10-05_141735.png (2.0 MB)
    • 2018-10-05_141746.png (1.7 MB)


Anime Tosho Home Bikini Warriors 3, Even Heroes Have Needs . Bikini Warriors BD720p 1-16 English Subbed (HEVC 10bit SmoodFlamez).

Anime Tosho Home Bikini Warriors 3, Even Heroes Have Needs . Bikini Warriors - Episode 3 (of 12): Even Heroes Have Needs. ylineThe show is a sequence of 12 stories about the adventures of four girls.

Bikini Warriors BD720p (HEVC 10bit SmoodFlamez). 1555109 English Image 175-020165574d09.

Qualidea Code - 10 BD720p. mission impossible 1966 season complete 720p web dl x264 i c. 1 minute ago. 16. 7 MB. Qualidea Code - 11 BD720p. make electronics.

Japanese Anime Streams, Dual Audio MKV English dubbed downloads. It seems like it was all for nothing because I only got 10$ of donations for it in 30 days and it costs a lot more than 10$ to keep this up. The Garden of Words~Kotonoha no Niwa (720p/1080p Blu-ray 8bit AAC MP4). a more streamable/smaller download of currently airing anime. Includes: – Episode 01-10 (Incomplete). Title(s): Hataage! Kemono Michi, Kemono Michi: Rise Up, Rise Up!

Please keep in mind, if the video is frozen or stuck it may be buffering, please be patient.

Select a mirror and stream Bikini Warriors Episode 1 Subbed & Dubbed in HD. High Quality Anime Online at Animegg. Please keep in mind, if the video is frozen or stuck it may be buffering, please be patient. Please select an error, we will get it fixed! Video Wont Load/Play File Not Found Video Crashed Wrong Video, Anime Video Not Subbed Video Not Dubbed Video Not Raw Wrong Audio, Bad Audio Video Not Here.

Kokoro Connect 16 (BD720p 10bit HEVC). mkv MediaInfo Video ID : 1 Format : HEVC Format/Info : High Efficiency Video Coding. 7. 8 MB. Kokoro Connect 17 (BD720p 10bit HEVC).

Watch Streaming Anime Bikini Warriors Episode 10 English Subbed online for Free in HD/High Quality. Azur Lane Episode 9 English Subbed. Assassins Pride Episode 6 English Dubbed. Our players are mobile (HTML5) friendly, responsive with ChromeCast support. You can use your mobile device without any trouble. Assassins Pride Episode 4 English Dubbed.

mkv 12. MB. 16 - Filolial Queen. mkv 12. 13 - The Devil Of The Shield. mkv 11. 10 - In The Midst Of Turmoil. mkv 10. 22 - For Heroes Council. 14 - Everlasting Memory. 15 - Raphtalia. 21 - Naofumi's Triumphant Return. png . Illustrations/Firo.

Title
Bikini Warriors

Source
Kametsu
TerribleSubs
Tsundere
Storyline
The show is a sequence of 12 stories about the adventures of four girls. The action takes part in a fantasy world filled with monsters and bad magicians
Details
Official Sites: Fan site | Official Website
Country: Japan
Language: Japanese
Release Date: 7 July 2015 (Japan) See more »
Also Known As: Bikini Warriors
Video
ID : 1
Format : HEVC
Format/Info : High Efficiency Video Coding
Format profile : Main [email protected]@Main
Codec ID : V_MPEGH/ISO/HEVC
Duration : 4 min 1 s
Width : 1 280 pixels
Height : 720 pixels
Display aspect ratio : 16:9
Frame rate mode : Constant
Frame rate : 23.976 (24000/1001) FPS
Color space : YUV
Chroma subsampling : 4:2:0
Bit depth : 10 bits
Audio
ID : 2
Format : Opus
Codec ID : A_OPUS
Duration : 4 min 1 s
Bit rate : 81.1 kb/s
Channel(s) : 2 channels
Channel layout : L R
Sampling rate : 96.0 kHz
Frame rate : 50.002 FPS (1920 SPF)
Compression mode : Lossy
Stream size : 2.34 MiB (9%)
Title : Japanese 2.0 AAC
Language : Japanese
Default : Yes
Forced : No
Text
ID : 3
Format : ASS
Codec ID : S_TEXT/ASS
Codec ID/Info : Advanced Sub Station Alpha
Duration : 3 min 26 s
Bit rate : 624 b/s
Count of elements : 161
Compression mode : Lossless
Stream size : 15.8 KiB (0%)
Language : Japanese
Default : No
Forced : No
Screenshots

Images:
https://i.imgur.com/M8IZGF9.jpg|https://i.imgur.com/PQuhtds.png|https://i.imgur.com/B5fBnfF.png

Related at Bikini Warriors BD720p Episodes 1-16 English Subbed :
© 2019 www.gphi.it | Contacts | DMCA | Privacy Policy