» » K Missing Kings 2014 JAPANESE 1080p BluRay REMUX AVC DTS-HD MA 5 1-FGT
Language: English
Size: 17.7 GB
Rating: 4.6
Category: Subbed
Votes: 502
K Missing Kings 2014 JAPANESE 1080p BluRay REMUX AVC DTS-HD MA 5 1-FGT
Files:
K.Missing.Kings.2014.JAPANESE.1080p.BluRay.REMUX.AVC.DTS-HD.MA.5.1-FGT
  • K.Missing.Kings.2014.JAPANESE.1080p.BluRay.REMUX.AVC.DTS-HD.MA.5.1-FGT.mkv (17.7 GB)
  • RARBG.txt (0.0 KB)


1-FGT torrent or any other torrent from English-translated category.

1-FGT torrent or any other torrent from English-translated category.

Shin Gojira 2016 JAPANESE BluRay REMUX 1080p AVC DTS-HD MA 3 1-FGT. Four Nights of a Dreamer AKA Quatre nuits d'un rêveur 1971 French BluRay REMUX 1080p AVC DTS-HD MA . - KRaLiMaRKo. Kaze no tani no Naushika aka Nausicaä of the Valley of the Wind 1984 BluRay REMUX 1080p AVC DTS-HD MA . -SiCaRio. American Dreamer 1984 720p BluRay DD. x264-EiDER. Nausicaa of the Valley of the Wind 1984 Japanese 1080p BluRay AAC x264-EbP. Category: BluRay REMUX 1080p, Top IMDB.

Tad the Lost Explorer and the Secret of King Midas 2017 BluRay REMUX 1080p AVC TrueHD .

1 h 29 min 23 s 650 ms Format. 2. 76 (24000/1001) FPS Audio. Tad the Lost Explorer and the Secret of King Midas 2017 BluRay REMUX 1080p AVC TrueHD . The Polka King 2017 NF 1080p WEB-DL DD. x264-SadeceBluRay. The King 2017 WEB-DL 1080p H264 AAC-TTG. King Arthur Legend Of The Sword 2017 3D HSBS MULTISUBS 1080p BluRay DD. x264 HQ-TUSAHD.

The Keeping Room Th. eeping. 1-EPSiLON ~ 1. GB General Filename.

Game of Thrones Season 4 COMPLETE BluRay 480p, 720p, 1080p & 4K-2160p.

Tags: The Monkey King.

April 9, 2014Posted in: 1080p, Movies : Th. onkey. MA5 : 2014 Genr.: Action, Sci-Fi Runtim. : Chinese/English (Selectable) Audi. . Tags: The Monkey King.

Dts-hd ma . pcm . AC3 . Dolby 3D Glasses Return Trailer Flat (3D). or . ) dolby tru-hd supports dolby atmos better than dts-hdma. Reply . Alfred January 20, 2017 at 3:20 PM. Iso. Dts-hd ma . Dolby 3D Movie Return Trailer Flat (2D). Dolby 3D Movie Return Trailer Flat (3D).

https://www.imdb.com/title/tt3794204/
K.Missing.Kings.2014.JAPANESE.1080p.BluRay.REMUX.AVC.DTS-HD.MA.5.1-FGT



Code:

Video
ID : 1
Format : AVC
Format/Info : Advanced Video Codec
Format profile : [email protected]
Format settings : CABAC / 4 Ref Frames
Format settings, CABAC : Yes
Format settings, ReFrames : 4 frames
Codec ID : V_MPEG4/ISO/AVC
Duration : 1 h 13 min
Bit rate mode : Constant
Bit rate : 30.1 Mb/s
Nominal bit rate : 35.0 Mb/s
Width : 1 920 pixels
Height : 1 080 pixels
Display aspect ratio : 16:9
Frame rate mode : Constant
Frame rate : 23.976 (24000/1001) FPS
Standard : NTSC
Color space : YUV
Chroma subsampling : 4:2:0
Bit depth : 8 bits
Scan type : Progressive
Bits/(Pixel*Frame) : 0.606
Stream size : 15.5 GiB (87%)
Title : K.Missing.Kings.2014.JAPANESE.1080p.BluRay.REMUX.AVC.DTS-HD.MA.5.1-FGT
Language : English
Default : No
Forced : No
Color range : Limited
Color primaries : BT.709
Transfer characteristics : BT.709
Matrix coefficients : BT.709
Audio #1
ID : 2
Format : DTS XLL
Format/Info : Digital Theater Systems
Commercial name : DTS-HD Master Audio
Codec ID : A_DTS
Duration : 1 h 13 min
Bit rate mode : Variable
Bit rate : 2 111 kb/s
Channel(s) : 6 channels
Channel layout : C L R Ls Rs LFE
Sampling rate : 48.0 kHz
Frame rate : 93.750 FPS (512 SPF)
Bit depth : 16 bits
Compression mode : Lossless
Stream size : 1.08 GiB (6%)
Title : K.Missing.Kings.2014.JAPANESE.1080p.BluRay.REMUX.AVC.DTS-HD.MA.5.1-FGT
Language : Japanese
Default : Yes
Forced : No
Audio #2
ID : 3
Format : DTS XLL
Format/Info : Digital Theater Systems
Commercial name : DTS-HD Master Audio
Codec ID : A_DTS
Duration : 1 h 13 min
Bit rate mode : Variable
Bit rate : 2 203 kb/s
Channel(s) : 6 channels
Channel layout : C L R Ls Rs LFE
Sampling rate : 48.0 kHz
Frame rate : 93.750 FPS (512 SPF)
Bit depth : 16 bits
Compression mode : Lossless
Stream size : 1.13 GiB (6%)
Title : K.Missing.Kings.2014.JAPANESE.1080p.BluRay.REMUX.AVC.DTS-HD.MA.5.1-FGT
Language : English
Default : No
Forced : No
Text #1
ID : 4
Format : PGS
Muxing mode : zlib
Codec ID : S_HDMV/PGS
Codec ID/Info : Picture based subtitle format used on BDs/HD-DVDs
Duration : 1 h 11 min
Bit rate : 43.5 kb/s
Count of elements : 1735
Stream size : 22.1 MiB (0%)
Title : English-For-Japanese-PGS
Language : English
Default : Yes
Forced : Yes
Text #2
ID : 5
Format : PGS
Muxing mode : zlib
Codec ID : S_HDMV/PGS
Codec ID/Info : Picture based subtitle format used on BDs/HD-DVDs
Duration : 1 h 10 min
Bit rate : 4 273 b/s
Count of elements : 126
Stream size : 2.14 MiB (0%)
Title : English-For-DUB-PGS
Language : English
Default : No
Forced : No
Menu
00:00:00.000 : en:Chapter 01
00:04:19.592 : en:Chapter 02
00:10:42.141 : en:Chapter 03
00:16:04.672 : en:Chapter 04
00:25:38.495 : en:Chapter 05
00:32:03.087 : en:Chapter 06
00:38:04.240 : en:Chapter 07
00:42:45.771 : en:Chapter 08
00:46:43.342 : en:Chapter 09
00:55:52.515 : en:Chapter 10
01:02:35.752 : en:Chapter 11
01:07:40.765 : en:Chapter 12
Images:
https://imagecurl.com/images/38639833096166526524_thumb.png|https://imagecurl.com/images/86593874962795503831_thumb.png|https://imagecurl.com/images/05836697705601311885_thumb.png

Related at K Missing Kings 2014 JAPANESE 1080p BluRay REMUX AVC DTS-HD MA 5 1-FGT:
© 2019 www.gphi.it | Contacts | DMCA | Privacy Policy