» » Sekirei Completed Batch With OVAs+Manga BD720p_HEVC
Language: Japanese
Size: 5.2 GB
Rating: 4.5
Category: Subbed
Votes: 784
Sekirei Completed Batch With OVAs+Manga BD720p_HEVC
Files:


Sekirei Completed Batch With Manga (BD720p HEVC). Sekirei Manga Completed. 000 Omake 1 Halloween Parade.

Sekirei Completed Batch With Manga (BD720p HEVC).

Recognizing the potential within the seemingly insignificant youth, Musubi kisses the bewildered Minato, initiating a bond between the two of them. Anime Tosho provides a mirror of torrents and is not the source.

Sekirei Completed Batch With Manga (BD720p HEVC) (. 3 GB. 000 extra Hot Springs 1 Startled at the Open Air Bath. 3 GB). Screenshots. 2 MB. 2019-08-18 101906. 8 MB. 2019-08-18 101917.

Sekirei Season 1 BD Sub Indo + OVA (BATCH). Genre: Action, Comedy, Ecchi, Harem, Super Power Musim Rilis: Summer 2008. Download Sekirei BD Sub Indo Batch 360p, 480p, 720p. Sekirei BD Subtitle Indonesia + OVA – Koenime. Sekirei S1 Sub Indo Meownime, Sekirei OVA Sub Indo, Sekirei BD 1-12 Sub Indo.

Direct Download SSekirei: Pure Engagement (Completed Batch)(480p .

Direct Download SSekirei: Pure Engagement (Completed Batch)(480p60MB)) (60MB - Encoded) 480p Ongoing/Completed Anime. Based on the seinen manga by Gokurakuin Sakurako, serialised in Young Gangan, Sekirei: Pure Engagement, sequel to Sekirei. This binds the Sekirei to him and allows them to use their full power in the Sekirei Plan, a dangerous and deadly competition organised by Minaka Hiroto, chairman and founder of the mysterious and powerful MBI Corporation.

1280x720 HEVC BD AAC). W・TAILS CAT - A STRANGE PRESENCE. By biohrd in forum Hentai OVAs. Overlord - 05 (1280x720 HEVC BD AAC). Replies: 0. Last Post: October 26th, 2014, 09:49 AM.

Kimagure Orange Road . .Gurupam 6 months ago in 1080p, Batch, BD, OVA 0.

Kimagure Orange Road (BD . 64 Flac) – TV + SP. Jamie 6 months ago in, 1080p, Batch, BD 7. 4. Mnemosyne: Mnemosyne no Musume-tachi, Mnemosyne -ムネモシュネの娘たち- 10-bit 720p HEVC BDRip. Gurupam 6 months ago in 720p, Batch, BD 1. 魔法遣いに大切なこと 〜夏のソラ〜 (Mahoutsukai ni Daisetsuna koto ~Natsu no Sora~) (DVDRip x264 FLAC Chap). 2. 機動戦士ガンダム00 セカンドシーズン (Mobile Suit Gundam Double O 2nd Season) (BDrip x264 DTS-HDMA Chap).

One Piece Movies and Specials (v2).

DRAGON BALL Z (1989-2018) - The COMPLETE Series, 16 DBZ Movies, 4 OVAs, 8 TV Specials - 720p BluRay DUAL AUDIO x264. Dragon Ball Super Movie - Broly (WEBRip 720p Hi444PP EAC3). Nanatsu no Taizai Movie - Tenkuu no Torawarebito (Dual Audio) (WEBRip 720p Hi444PP EAC3x2). One Piece Movies and Specials (v2).

Title
Sekirei
Sekirei Pure Engagement

Source
[Chihiro]
Kametsu
Synopsis
Struggling yet brilliant teenager Minato Sahashi has failed his college entrance exams for the second time, resulting in him being regarded as worthless by those around him. However, the course of his seemingly bleak future is altered dramatically when a beautiful, supernatural woman falls from the sky and into his life. That woman, Musubi, is a unique being known as a "Sekirei," a humanoid extraterrestrial with extraordinary abilities. These aliens are known for kissing humans carrying the Ashikabi gene in order to awaken additional latent powers deep within.
Recognizing the potential within the seemingly insignificant youth, Musubi kisses the bewildered Minato, initiating a bond between the two of them. This drags him into the high-stakes world of the Sekirei, where he and his new partner must compete against others in a battle for survival called the "Sekirei Plan." However, unbeknownst to the contestants, there is far more at risk that what the competition initially entailed.
Information
Type: TV
Episodes: 12
Status: Finished Airing
Aired: Jul 2, 2008 to Sep 17, 2008
Premiered: Summer 2008
Broadcast: Wednesdays at 23:30 (JST)
Producers: Aniplex, Movic
Licensors: Funimation
Studios: Seven Arcs
Source: Manga
Genres: Action, Comedy, Ecchi, Harem, Super Power
Duration: 23 min. per ep.
Rating: R+ - Mild Nudity
==================================================================================
MediaInfo
Video
ID : 1
Format : HEVC
Format/Info : High Efficiency Video Coding
Format profile : Main [email protected]@High
Codec ID : V_MPEGH/ISO/HEVC
Duration : 23 min 38 s
Bit rate : 852 kb/s
Width : 1 280 pixels
Height : 720 pixels
Display aspect ratio : 16:9
Frame rate mode : Constant
Frame rate : 29.970 (30000/1001) FPS
Color space : YUV
Chroma subsampling : 4:2:0
Bit depth : 10 bits
Audio
ID : 2
Format : AAC LC
Format/Info : Advanced Audio Codec Low Complexity
Codec ID : A_AAC-2
Duration : 23 min 38 s
Bit rate : 80.0 kb/s
Channel(s) : 2 channels
Channel layout : L R
Sampling rate : 96.0 kHz
Frame rate : 93.750 FPS (1024 SPF)
Compression mode : Lossy
Stream size : 13.5 MiB (8%)
Language : Japanese
Default : Yes
Forced : No
Text #1
ID : 3
Format : ASS
Codec ID : S_TEXT/ASS
Codec ID/Info : Advanced Sub Station Alpha
Duration : 22 min 16 s
Bit rate : 64 b/s
Count of elements : 107
Compression mode : Lossless
Stream size : 10.6 KiB (0%)
Language : English
Default : No
Forced : Yes
Text #2
ID : 4
Format : ASS
Codec ID : S_TEXT/ASS
Codec ID/Info : Advanced Sub Station Alpha
Duration : 23 min 35 s
Bit rate : 172 b/s
Count of elements : 407
Compression mode : Lossless
Stream size : 29.8 KiB (0%)
Language : English
Default : No
Forced : No
Menu
00:00:00.000 : en:Prologue - 00:00:00.000
00:01:05.999 : en:Opening - 00:01:05.999
00:02:36.055 : en:The Green Girl Part 1 - 00:02:36.055
00:09:56.996 : en:Eyecatch - 00:09:56.996
00:10:00.032 : en:The Green Girl Part 2 - 00:10:00.032
00:21:46.038 : en:Ending - 00:21:46.038
00:23:16.027 : en:Preview - 00:23:16.027
=============================================================================================
Screenshots

Images:

Related at Sekirei Completed Batch With OVAs+Manga :
© 2019 www.gphi.it | Contacts | DMCA | Privacy Policy