» » Mob Psycho 100 II 02 1080p WEBRip x265 HEVC 10bit AAC 2.0 theincognito
Language: Japanese
Size: 270.9 MB
Rating: 4.6
Category: Subbed
Votes: 357
Mob Psycho 100 II 02 1080p WEBRip x265 HEVC 10bit AAC 2.0 theincognito
Files:
  • Mob.Psycho.100.II.02.1080p.WEBRip.x265.HEVC.10bit.AAC.2.0-theincognito[UTR].mkv (270.9 MB)


Video ID : 1 Format : HEVC Format/Info : High Efficiency Video Coding Format profile : Main Codec ID : V MPEGH/ISO/HEVC .

Video ID : 1 Format : HEVC Format/Info : High Efficiency Video Coding Format profile : Main Codec ID : V MPEGH/ISO/HEVC Duration : 24 min 10 s Bit rate : 1 197 kb/s Width : 1 920 pixels Height : 1 080 pixels Display aspect ratio : 16:9 Frame rate mode : Constant Frame rate : 2. 76 (24000/1001) FPS Color space : YUV Chroma subsampling . theincognito utr mob psycho 100 x265 hevc II. Release name: Mob Psycho 100 II 08 (1080p WEBRip x265 HEVC 10bit AAC . theincognito).

All categories Anime - Anime Music Video - English-translated - ed - Raw Audio - Lossless - Lossy Literature .

All categories Anime - Anime Music Video - English-translated - ed - Raw Audio - Lossless - Lossy Literature - English-translated - ed - Raw Live Action - English-translated - Idol/Promotional Video - ed - Raw Pictures - Graphics - Photos Software - Applications - Games. Source: HorribleSubs Video: 1080p, x265 10bit Audio: Untouched Subtitle: Erai-raws.

mkv (37. 8 MB). Mo. sycho.

mkv (22. 5 MB). 22. 5 MB. Description.

You cannot download any of those files from here. dry fire 0s, married at first sight nz 3s, fb2 3s, dual audio 3s, Voice of Ruin - Acheron (2019) 3s, Mike Candys feat. Maury - Miracles (radio mix) 2s, fairly legal 0s, maiden 1s, udemy digital marketing 0s, tikb-035 1s.

If the content above is not authorized, please contact us via contactp2bt. Remember to include the full url in your complaint.

mkv 24. MB. Related Resources. WEBRip 53. Vice Principals (2016) Season 02 S02 (1080p WE. .

Uploading 0 image (0% complete). The queue is being uploaded, it should take just a few seconds to complete. Uploaded content added to. You can create a new album with the content just uploaded. No image have been uploaded.


Media Information

Media Information


Code:

General
Format : Matroska
Format version : Version 4
File size : 271 MiB
Duration : 24 min 10 s
Overall bit rate : 1 567 kb/s
Encoded date : UTC 2019-01-14 18:00:46
Writing application : mkvmerge v30.1.0 ('Forever And More') 64-bit
Writing library : libebml v1.3.6 + libmatroska v1.4.9
Video
ID : 1
Format : HEVC
Format/Info : High Efficiency Video Coding
Format profile : Main [email protected]@Main
Codec ID : V_MPEGH/ISO/HEVC
Duration : 24 min 9 s
Bit rate : 1 435 kb/s
Width : 1 920 pixels
Height : 1 080 pixels
Display aspect ratio : 16:9
Frame rate mode : Constant
Frame rate : 23.976 (24000/1001) FPS
Color space : YUV
Chroma subsampling : 4:2:0
Bit depth : 10 bits
Bits/(Pixel*Frame) : 0.029
Stream size : 248 MiB (92%)
Writing library : x265 3.0_RC+10-672ce0547e97:[Windows][MSVC 1920][64 bit] 10bit
Encoding settings : cpuid=1111039 / frame-threads=3 / numa-pools=8 / wpp / no-pmode / no-pme / no-psnr / no-ssim / log-level=2 / input-csp=1 / input-res=1920x1080 / interlace=0 / total-frames=34765 / level-idc=0 / high-tier=1 / uhd-bd=0 / ref=3 / no-allow-non-conformance / no-repeat-headers / annexb / no-aud / no-hrd / info / hash=0 / no-temporal-layers / open-gop / min-keyint=23 / keyint=250 / gop-lookahead=0 / bframes=8 / b-adapt=2 / b-pyramid / bframe-bias=0 / rc-lookahead=50 / lookahead-slices=6 / scenecut=40 / radl=0 / no-splice / no-intra-refresh / ctu=64 / min-cu-size=8 / no-rect / no-amp / max-tu-size=32 / tu-inter-depth=1 / tu-intra-depth=1 / limit-tu=0 / rdoq-level=0 / dynamic-rd=0.00 / no-ssim-rd / signhide / no-tskip / nr-intra=0 / nr-inter=0 / no-constrained-intra / strong-intra-smoothing / max-merge=2 / limit-refs=3 / no-limit-modes / me=2 / subme=4 / merange=57 / temporal-mvp / weightp / no-weightb / no-analyze-src-pics / deblock=1:1 / sao / no-sao-non-deblock / rd=3 / no-early-skip / rskip / no-fast-intra / no-tskip-fast / no-cu-lossless / no-b-intra / no-splitrd-skip / rdpenalty=0 / psy-rd=0.40 / psy-rdoq=0.00 / no-rd-refine / no-lossless / cbqpoffs=0 / crqpoffs=0 / rc=crf / crf=23.0 / qcomp=0.60 / qpstep=4 / stats-write=0 / stats-read=0 / ipratio=1.40 / pbratio=1.30 / aq-mode=3 / aq-strength=0.40 / cutree / zone-count=0 / no-strict-cbr / qg-size=32 / no-rc-grain / qpmax=69 / qpmin=0 / no-const-vbv / sar=0 / overscan=0 / videoformat=5 / range=0 / colorprim=2 / transfer=2 / colormatrix=1 / chromaloc=0 / display-window=0 / max-cll=0,0 / min-luma=0 / max-luma=1023 / log2-max-poc-lsb=8 / vui-timing-info / vui-hrd-info / slices=1 / no-opt-qp-pps / no-opt-ref-list-length-pps / no-multi-pass-opt-rps / scenecut-bias=0.05 / no-opt-cu-delta-qp / aq-motion / no-hdr / no-hdr-opt / no-dhdr10-opt / no-idr-recovery-sei / analysis-reuse-level=5 / scale-factor=0 / refine-intra=0 / refine-inter=0 / refine-mv=0 / refine-ctu-distortion=0 / no-limit-sao / ctu-info=0 / no-lowpass-dct / refine-analysis-type=0 / copy-pic=1 / max-ausize-factor=1.0 / no-dynamic-refine / no-single-sei / hevc-aq / qp-adaptation-range=1.00
Default : Yes
Forced : No
Color range : Limited
Matrix coefficients : BT.709
Audio
ID : 2
Format : AAC LC
Format/Info : Advanced Audio Codec Low Complexity
Codec ID : A_AAC-2
Duration : 24 min 9 s
Bit rate : 128 kb/s
Channel(s) : 2 channels
Channel layout : L R
Sampling rate : 44.1 kHz
Frame rate : 43.066 FPS (1024 SPF)
Compression mode : Lossy
Delay relative to video : 10 ms
Stream size : 22.1 MiB (8%)
Language : Japanese
Default : No
Forced : No
Subtitle
ID : 3
Format : ASS
Codec ID : S_TEXT/ASS
Codec ID/Info : Advanced Sub Station Alpha
Duration : 24 min 7 s
Bit rate : 180 b/s
Count of elements : 433
Compression mode : Lossless
Stream size : 31.8 KiB (0%)
Title : English(US)
Language : English
Default : Yes
Forced : No

Source Information


Code:

Release:
[EraiRaws]
Images:
https://imagez.to/i/1K3Mla7z.png

Related at Mob Psycho 100 II 02 :
Comments 1
Twentyfirstfinger
Please seed.
© 2019 www.gphi.it | Contacts | DMCA | Privacy Policy