» » Inazuma Eleven Orion no Kokuin - 24v1 RyRo 42474C68 720p
Language: English
Size: 344.9 MB
Rating: 4.3
Category: Subbed
Votes: 745
Inazuma Eleven Orion no Kokuin - 24v1 RyRo 42474C68 720p
Files:
  • [RyRo]_Inazuma_Eleven_Orion_no_Kokuin_-_24v1_(720p)_[42474C68].mkv (344.9 MB)


Inazuma Eleven Orion no Kokuin - 24v1 (720p).

Inazuma Eleven Orion no Kokuin - 24v1 (720p). mkv (34. MB). Inazuma Eleven Orion no Kokuin - 24v1 (720p).

am Inazuma Eleven Orion no Kokuin - 24v1 (720p). ch n-no-Kokuin-24v1-(720p)- Other. eu Inazuma Eleven Orion no Kokuin - 24v1 (720p). Be careful of what you download or face the consequences.

You cannot download any of those files from here. Bones (Bones (2005) Season 6 -. ev 480p x264 MKV).

Torrent Name: Inazuma Eleven Orion no Kokuin - 24v1 (720p) .mkv. Date Submitted: 2019-04-13 08:07 UTC.

Inazuma Japan's Biggest Crisis. Серия 9. The Emperor's Return. Серия 10. The Emperor Strikes Back. Серия 11. The Emperor's Scenario. Серия 24. Let's Walk Through Russia.

Anime Tosho Home Inazuma Eleven: Orion no Kokuin 24, Let's Walk Through Russia . . RELEASE - Inazuma Eleven Orion no Kokuin 24 v1. Tracker(s). Inazuma Eleven: Orion no Kokuin - Episode 24: Let's Walk Through Russia. Article (!) RELEASE - Inazuma Eleven Orion no Kokuin 24 v1.

Inazuma Eleven Orion no Kokuin - 40v1 (720p). Inazuma Eleven Orion no Kokuin720p. Inazuma Eleven Orion no Kokuin - 38v1 (720p).

Quote:

General
Unique ID : 311104030995523947837055722864311298234 (0xEA0C74F825019B7A7187542453F868BA)
Complete name : [RyRo]_Inazuma_Eleven_Orion_no_Kokuin_-_24v1_(720p)_[42474C68].mkv
Format : Matroska
Format version : Version 4
File size : 345 MiB
Duration : 22 min 54 s
Overall bit rate : 2 104 kb/s
Encoded date : UTC 2019-04-11 01:52:01
Writing application : mkvmerge v22.0.0 ('At The End Of The World') 64-bit
Writing library : libebml v1.3.5 + libmatroska v1.4.8
Attachments : Candarabolditalic.ttf / Candaraitalic.ttf / Dfheic.TTC / Negatori.ttf / SWEETASCANDY.TTF / BRITANIC.TTF / CANDARA.ttf / Candarab.ttf / CandaraBOLD.ttf
Video
ID : 2
Format : AVC
Format/Info : Advanced Video Codec
Format profile : [email protected]
Format settings : CABAC / 5 Ref Frames
Format settings, CABAC : Yes
Format settings, ReFrames : 5 frames
Codec ID : V_MPEG4/ISO/AVC
Duration : 22 min 54 s
Bit rate : 1 888 kb/s
Width : 1 280 pixels
Height : 720 pixels
Display aspect ratio : 16:9
Frame rate mode : Constant
Frame rate : 23.976 (24000/1001) FPS
Color space : YUV
Chroma subsampling : 4:2:0
Bit depth : 8 bits
Scan type : Progressive
Bits/(Pixel*Frame) : 0.085
Stream size : 309 MiB (90%)
Writing library : x264 core 146 r2538 121396c
Encoding settings : cabac=1 / ref=5 / deblock=1:-3:-3 / analyse=0x3:0x133 / me=umh / subme=10 / psy=1 / psy_rd=1.00:0.00 / mixed_ref=1 / me_range=32 / chroma_me=1 / trellis=2 / 8x8dct=1 / cqm=0 / deadzone=21,11 / fast_pskip=0 / chroma_qp_offset=-2 / threads=3 / lookahead_threads=1 / sliced_threads=0 / nr=0 / decimate=0 / interlaced=0 / bluray_compat=0 / constrained_intra=0 / bframes=5 / b_pyramid=2 / b_adapt=2 / b_bias=0 / direct=1 / weightb=1 / open_gop=0 / weightp=0 / keyint=240 / keyint_min=23 / scenecut=40 / intra_refresh=0 / rc_lookahead=40 / rc=crf / mbtree=1 / crf=20.5 / qcomp=0.60 / qpmin=0 / qpmax=69 / qpstep=4 / ip_ratio=1.40 / aq=1:1.00
Default : Yes
Forced : No
Audio
ID : 3
Format : AAC LC
Format/Info : Advanced Audio Codec Low Complexity
Codec ID : A_AAC-2
Duration : 22 min 54 s
Bit rate : 192 kb/s
Channel(s) : 2 channels
Channel layout : L R
Sampling rate : 48.0 kHz
Frame rate : 46.875 FPS (1024 SPF)
Compression mode : Lossy
Delay relative to video : -83 ms
Stream size : 31.5 MiB (9%)
Language : Japanese
Default : Yes
Forced : No
Text
ID : 1
Format : ASS
Codec ID : S_TEXT/ASS
Codec ID/Info : Advanced Sub Station Alpha
Duration : 22 min 51 s
Bit rate : 176 b/s
Count of elements : 498
Compression mode : Lossless
Stream size : 29.5 KiB (0%)
Language : English
Default : Yes
Forced : No
Images:

Related at Inazuma Eleven Orion no Kokuin - 24v1 :
© 2019 www.gphi.it | Contacts | DMCA | Privacy Policy