» » Inazuma Eleven Orion no Kokuin - 28v1 RyRo F073A6DB 720p
Language: English
Size: 444.8 MB
Rating: 4.3
Category: Subbed
Votes: 570
Inazuma Eleven Orion no Kokuin - 28v1 RyRo F073A6DB 720p
Files:
  • [RyRo]_Inazuma_Eleven_Orion_no_Kokuin_-_28v1_(720p)_[F073A6DB].mkv (444.8 MB)


Date: 2019-05-08 06:15 UTC. Submitter: RyRo. Download Torrent or Magnet.

Date: 2019-05-08 06:15 UTC. Inazuma Eleven Orion no Kokuin - 28v1 (720p). 2019-05-08 09:49 UTC. ohhh wait a double release thanks ^ ^. Kazeyuki. 2019-05-10 14:52 UTC.

Anime Tosho Home Inazuma Eleven: Orion no Kokuin 28, Ichinose Sink in a Coup d'Etat . . RELEASE - Inazuma Eleven Orion no Kokuin 27 & 28 v1. Tracker(s). Inazuma Eleven: Orion no Kokuin - Episode 28: Ichinose Sink in a Coup d'Etat. Article (!) RELEASE - Inazuma Eleven Orion no Kokuin 27 & 28 v1.

Watch full Inazuma Eleven: Orion no Kokuin Episode 28 English Subbed online for free in H. Inazuma Eleven: Orion no Kokuin Episode 28 English Subbed.

Watch full Inazuma Eleven: Orion no Kokuin Episode 28 English Subbed online for free in HD. Full HD Inazuma Eleven: Orion no Kokuin Episode 28 English sub streaming onli. Watch full Inazuma Eleven: Orion no Kokuin Episode 28 English Subbed online for free in HD. Full HD Inazuma Eleven: Orion no Kokuin Episode 28 English sub streaming online.

Added 6 months ago in Anime - English-translated Downloaded 0 time. mkv (44. MB). 44. MB. Related Torrents.

Torrent Name: Inazuma Eleven Orion no Kokuin - 28v1 (720p) .mkv.

Gate to the World (世界(せかい)への門(もん), Sekai e no Mon) is the first episode of the Inazuma Eleven Orion no Kokuin anime. The day has finally arrived and the players who are going to represent Inazuma Japan have been selected. All players who were selected played in the Football Frontier aside from one player, Ichihoshi Mitsuru, who came from Russia.

Inazuma Eleven: Orion no Kokuin. Inazuma Eleven: Orion no Kokuin (Japanese: イナズマイレブン オリオンの刻印 Hepburn: Inazuma Irebun Orion no Kokuin, lit. "Inazuma Eleven: The Seal of Orion") is a 2018 Japanese television anime series produced by OLM. Part of the Inazuma Eleven franchise, it is a sequel to Inazuma Eleven: Ares that was broadcast between April and September 2018. It began airing on TV Tokyo and its affiliates from October 2018 to September 2019.

28 : Ichinose Sink in a Coup d'Etat. Inazuma Japan's Biggest Crisis. Серия 9. The Emperor's Return. 28 серия Вышла 3 Мая 2019 25 мин. TV Tokyo. Серия 1. The Gate to the World. Серия 10. The Emperor Strikes Back. Серия 11. The Emperor's Scenario.

Video ID : 1 Format : AVC Format/Info : Advanced Video Codec Format profile : Format settings : CABAC, 5 Ref Frames Format settings, CABAC : Yes Format settings, ReFrames : 5 frames Codec ID : V MPEG4/ISO/AVC Duration : 22 min 54 s Bit rate : 2 49.

Video ID : 1 Format : AVC Format/Info : Advanced Video Codec Format profile : Format settings : CABAC, 5 Ref Frames Format settings, CABAC : Yes Format settings, ReFrames : 5 frames Codec ID : V MPEG4/ISO/AVC Duration : 22 min 54 s Bit rate : 2 497 kb/s Width : 1 280 pixels Height : 720 pixels Display aspect ratio : 16:9 Frame rate mode : Constant.

Quote:

General
Unique ID                   : 92970922377418562857143284053078751936 (0x45F18C5FC62D13288AA898E570C0BAC0)
Complete name               : [RyRo]_Inazuma_Eleven_Orion_no_Kokuin_-_28v1_(720p)_[F073A6DB].mkv
Format                      : Matroska
Format version              : Version 4
File size                   : 445 MiB
Duration                    : 22 min 55 s
Overall bit rate            : 2 714 kb/s
Encoded date                : UTC 2019-05-08 02:10:26
Writing application         : mkvmerge v33.1.0 ('Primrose') 64-bit
Writing library             : libebml v1.3.7 + libmatroska v1.5.0
Attachments                 : Candarabolditalic.ttf / Candaraitalic.ttf / Dfheic.TTC / Negatori.ttf / SWEETASCANDY.TTF / BRITANIC.TTF / CANDARA.ttf / Candarab.ttf / CandaraBOLD.ttf
Video
ID                          : 1
Format                      : AVC
Format/Info                 : Advanced Video Codec
Format profile              : [email protected]
Format settings             : CABAC / 5 Ref Frames
Format settings, CABAC      : Yes
Format settings, ReFrames   : 5 frames
Codec ID                    : V_MPEG4/ISO/AVC
Duration                    : 22 min 54 s
Bit rate                    : 2 497 kb/s
Width                       : 1 280 pixels
Height                      : 720 pixels
Display aspect ratio        : 16:9
Frame rate mode             : Constant
Frame rate                  : 23.976 (24000/1001) FPS
Color space                 : YUV
Chroma subsampling          : 4:2:0
Bit depth                   : 8 bits
Scan type                   : Progressive
Bits/(Pixel*Frame)          : 0.113
Stream size                 : 409 MiB (92%)
Writing library             : x264 core 146 r2538 121396c
Encoding settings           : cabac=1 / ref=5 / deblock=1:-3:-3 / analyse=0x3:0x133 / me=umh / subme=10 / psy=1 / psy_rd=1.00:0.00 / mixed_ref=1 / me_range=32 / chroma_me=1 / trellis=2 / 8x8dct=1 / cqm=0 / deadzone=21,11 / fast_pskip=0 / chroma_qp_offset=-2 / threads=3 / lookahead_threads=1 / sliced_threads=0 / nr=0 / decimate=0 / interlaced=0 / bluray_compat=0 / constrained_intra=0 / bframes=5 / b_pyramid=2 / b_adapt=2 / b_bias=0 / direct=1 / weightb=1 / open_gop=0 / weightp=0 / keyint=240 / keyint_min=23 / scenecut=40 / intra_refresh=0 / rc_lookahead=40 / rc=crf / mbtree=1 / crf=20.5 / qcomp=0.60 / qpmin=0 / qpmax=69 / qpstep=4 / ip_ratio=1.40 / aq=1:1.00
Default                     : Yes
Forced                      : No
Audio
ID                          : 2
Format                      : AAC LC
Format/Info                 : Advanced Audio Codec Low Complexity
Codec ID                    : A_AAC-2
Duration                    : 22 min 55 s
Bit rate                    : 192 kb/s
Channel(s)                  : 2 channels
Channel layout              : L R
Sampling rate               : 48.0 kHz
Frame rate                  : 46.875 FPS (1024 SPF)
Compression mode            : Lossy
Delay relative to video     : -83 ms
Stream size                 : 31.5 MiB (7%)
Language                    : Japanese
Default                     : Yes
Forced                      : No
Text
ID                          : 3
Format                      : ASS
Codec ID                    : S_TEXT/ASS
Codec ID/Info               : Advanced Sub Station Alpha
Duration                    : 22 min 51 s
Bit rate                    : 145 b/s
Count of elements           : 419
Compression mode            : Lossless
Stream size                 : 24.3 KiB (0%)
Default                     : Yes
Forced                      : No



Images:
https://funkyimg.com/i/2TLti.jpg|https://funkyimg.com/i/2TLtj.jpg|https://funkyimg.com/i/2TLtk.jpg

Related at Inazuma Eleven Orion no Kokuin - 28v1 :
Comments 1
Qane
You should be adding a screenshot , when this happens i will upgrade you :) Thanks for the shares anyways :)
© 2019 www.gphi.it | Contacts | DMCA | Privacy Policy