» » Sword Art Online - Alicization 18 5 1080p WEBRip x265 HEVC 10bit AAC 2.0 theincognito
Language: Japanese
Size: 217.6 MB
Rating: 4.7
Category: Subbed
Votes: 893
Sword Art Online - Alicization 18 5 1080p WEBRip x265 HEVC 10bit AAC 2.0 theincognito
Files:
  • Sword.Art.Online.Alicization.18.5.1080p.WEBRip.x265.HEVC.10bit.AAC.2.0-theincognito[UTR].mkv (217.6 MB)


Posted in English-translated. 27. 3 MB. 1. 10 months ago.

17. 9 MB. Description. Posted in English-translated. 19. Tracker name.

All categories Anime - Anime Music Video - English-translated - ed - Raw Audio - Lossless - Lossy .

All categories Anime - Anime Music Video - English-translated - ed - Raw Audio - Lossless - Lossy Literature - English-translated - ed - Raw Live Action - English-translated - Idol/Promotional Video - ed - Raw Pictures - Graphics - Photos Software - Applications - Games.

10 hours ago Python Data Science: The Ultimate Crash Course, Tips, and Tricks to Learn Data Analytics, Machine Learning. 9 hours ago 4K Video Downloader . 0. 20 hours ago Windows 7 Ultimate . 24535 SP1 Lite (Build 24535) - November 2019.

21. MB.

Submitter: theincognito. Source: HorribleSubs Video: 1080p,x265 10bit Audio: Untouched from source Subtitle: Styled by me. File list.

The Soul Translator is a state-of-the-art full-dive interface which interacts with the user’s Fluctlight-the technological equivalent of a human soul-and fundamentally . English: Sword Art Online: Alicization

The Soul Translator is a state-of-the-art full-dive interface which interacts with the user’s Fluctlight-the technological equivalent of a human soul-and fundamentally differs from the orthodox method of sending signals to the brain. The private institute Rath aims to perfect their creation by enlisting the aid of Sword Art Online survivor Kazuto Kirigaya. He works there as a part-time employee to test the system’s capabilities in the Underworld: the fantastical realm generated by the Soul Translator. English: Sword Art Online: Alicization. Synonyms: Sword Art Online III, SAO Alicization, Sword Art Online 3, SAO 3.

Season 1. File Container: MKV Video Format: . 65/HEVC Video Resolution: 1920x1080 Aspect Ratio: 1. Audio Format: AAC-HE.

Season 1.

Sword Art Online: Alicization. The Soul Translator is a state-of-the-art full-dive interface which interacts with the user’s Fluctlight-the technological equivalent of a human soul-and fundamentally differs from the orthodox method of sending signals to the brain. He works there as a part-time employee to test the system’s capabilities in the Underworld: the fantastical realm generated by the Soul Translator


Media Information

Media Information

Code:

General
Format : Matroska
Format version : Version 4 / Version 2
File size : 218 MiB
Duration : 23 min 42 s
Overall bit rate : 1 284 kb/s
Encoded date : UTC 2019-02-17 05:42:14
Writing application : mkvmerge v30.1.0 ('Forever And More') 64-bit
Writing library : libebml v1.3.6 + libmatroska v1.4.9
Video
ID : 1
Format : HEVC
Format/Info : High Efficiency Video Coding
Format profile : Main [email protected]@Main
Codec ID : V_MPEGH/ISO/HEVC
Duration : 23 min 42 s
Bit rate : 1 153 kb/s
Width : 1 920 pixels
Height : 1 080 pixels
Display aspect ratio : 16:9
Frame rate mode : Constant
Frame rate : 23.976 (24000/1001) FPS
Color space : YUV
Chroma subsampling : 4:2:0
Bit depth : 10 bits
Bits/(Pixel*Frame) : 0.023
Stream size : 196 MiB (90%)
Writing library : x265 3.0_Au+3-5b90dc59b57a:[Windows][MSVC 1920][64 bit] 10bit
Encoding settings : cpuid=1111039 / frame-threads=3 / numa-pools=8 / wpp / no-pmode / no-pme / no-psnr / no-ssim / log-level=2 / input-csp=1 / input-res=1920x1080 / interlace=0 / total-frames=34095 / level-idc=0 / high-tier=1 / uhd-bd=0 / ref=3 / no-allow-non-conformance / no-repeat-headers / annexb / no-aud / no-hrd / info / hash=0 / no-temporal-layers / open-gop / min-keyint=23 / keyint=250 / gop-lookahead=0 / bframes=8 / b-adapt=2 / b-pyramid / bframe-bias=0 / rc-lookahead=50 / lookahead-slices=6 / scenecut=40 / radl=0 / no-splice / no-intra-refresh / ctu=64 / min-cu-size=8 / no-rect / no-amp / max-tu-size=32 / tu-inter-depth=1 / tu-intra-depth=1 / limit-tu=0 / rdoq-level=0 / dynamic-rd=0.00 / no-ssim-rd / signhide / no-tskip / nr-intra=0 / nr-inter=0 / no-constrained-intra / strong-intra-smoothing / max-merge=2 / limit-refs=3 / no-limit-modes / me=2 / subme=4 / merange=57 / temporal-mvp / weightp / no-weightb / no-analyze-src-pics / deblock=1:1 / sao / no-sao-non-deblock / rd=3 / no-early-skip / rskip / no-fast-intra / no-tskip-fast / no-cu-lossless / no-b-intra / no-splitrd-skip / rdpenalty=0 / psy-rd=0.40 / psy-rdoq=0.00 / no-rd-refine / no-lossless / cbqpoffs=0 / crqpoffs=0 / rc=crf / crf=23.0 / qcomp=0.60 / qpstep=4 / stats-write=0 / stats-read=0 / ipratio=1.40 / pbratio=1.30 / aq-mode=3 / aq-strength=0.40 / cutree / zone-count=0 / no-strict-cbr / qg-size=32 / no-rc-grain / qpmax=69 / qpmin=0 / no-const-vbv / sar=0 / overscan=0 / videoformat=5 / range=0 / colorprim=2 / transfer=2 / colormatrix=1 / chromaloc=0 / display-window=0 / max-cll=0,0 / min-luma=0 / max-luma=1023 / log2-max-poc-lsb=8 / vui-timing-info / vui-hrd-info / slices=1 / no-opt-qp-pps / no-opt-ref-list-length-pps / no-multi-pass-opt-rps / scenecut-bias=0.05 / no-opt-cu-delta-qp / aq-motion / no-hdr / no-hdr-opt / no-dhdr10-opt / no-idr-recovery-sei / analysis-reuse-level=5 / scale-factor=0 / refine-intra=0 / refine-inter=0 / refine-mv=0 / refine-ctu-distortion=0 / no-limit-sao / ctu-info=0 / no-lowpass-dct / refine-analysis-type=0 / copy-pic=1 / max-ausize-factor=1.0 / no-dynamic-refine / no-single-sei / hevc-aq / qp-adaptation-range=1.00
Default : Yes
Forced : No
Color range : Limited
Matrix coefficients : BT.709
Audio
ID : 2
Format : AAC
Format/Info : Advanced Audio Codec
Format profile : LC
Codec ID : A_AAC
Duration : 23 min 42 s
Bit rate : 128 kb/s
Channel(s) : 2 channels
Channel positions : Front: L R
Sampling rate : 44.1 kHz
Frame rate : 43.066 FPS (1024 spf)
Compression mode : Lossy
Delay relative to video : 10 ms
Stream size : 21.7 MiB (10%)
Language : Japanese
Default : No
Forced : No
Subtitle
ID : 3
Format : ASS
Codec ID : S_TEXT/ASS
Codec ID/Info : Advanced Sub Station Alpha
Duration : 23 min 38 s
Bit rate : 98 b/s
Count of elements : 208
Compression mode : Lossless
Stream size : 17.1 KiB (0%)
Language : English
Default : Yes
Forced : No
Images:
https://imagez.to/i/1K3Mla7z.png

Related at Sword Art Online - Alicization 18 5 :
© 2019 www.gphi.it | Contacts | DMCA | Privacy Policy